Printable Version of Topic

Click here to view this topic in its original format

Metal Area - Extreme Music Portal _ Archive _ No Point In Living - Unhappy Birthday [single] (2018)

Posted by: TDM Jul 21 2019, 19:45:30

http://metalarea.org/images/audiocovers/2019_Jul/acov_tid324753.jpg

*Artist: No Point In Living
*Album: Unhappy Birthday [single]
*Year: 2018
*Genre: Instrumental Depressive Black Metal
*Country: Japan
*Format: mp3@CBR320kbps
*Size: 24MB

Tracklist:
1. Unhappy Birthday 10:23
******************************
Total playing time: 10:23

https://npiljp.bandcamp.com/track/unhappy-birthday

Technical info

Input File: 01 - Unhappy Birthday.mp3
Channels : 2
Sample Rate : 44100
Precision : 16-bit
Duration : 00:10:23.11 = 27479151 samples = 46733.2 CDDA sectors
File Size : 25.1M
Bit Rate : 322k
Sample Encoding: MPEG audio (layer I, II or III)
Comments :
Title=Unhappy Birthday
Artist=No Point In Living
Album=Unhappy Birthday (Single)
Tracknumber=01
Year=2018
Genre=Depressive Black Metal



[ Hidden Text ]

Posted by: AlexCrazy Jul 21 2019, 21:20:47

http://static2.keep4u.ru/2019/07/21/ME2eIJiyRTY83404472c57ab33d.jpg
горшочек, не вари..... smile1.gif

Posted by: TDM Jul 21 2019, 21:23:13

ЦИТАТА(AlexCrazy @ Jul 21 2019, 23:20:47) *
горшочек, не вари..... smile1.gif

не бубни, диско оформили 25.gif

Powered by Invision Power Board
© Invision Power Services