Printable Version of Topic

Click here to view this topic in its original format

Metal Area - Extreme Music Portal _ Archive _ Dysangelium - Death Leading (2019)

Posted by: demenn Oct 7 2019, 17:43:20

https://metalarea.org/images/audiocovers/2019_Oct/acov_tid328470.jpg

*Artist: Dysangelium
*Album: Death Leading
*Year: 2019
*Genre: Black Metal
*Country: Germany
*Format: mp3@CBR320kbps
*Size: 92MB

Tracklist:
01. XIII 01:20
02. Fated 05:40
03. Homo Larvalis 05:28
04. Death Leading 04:22
05. The Great Work 06:17
06. Through Henbane Nebulah 05:25
07. Venus Inverse 04:45
08. When Death And Devil Rise 06:40
******************************
Total playing time: 40:00

https://dysangelium.bandcamp.com/
https://www.facebook.com/dysangeliumofficial

Extended info


Technical info

Input File: 02. Fated.mp3
Channels : 2
Sample Rate : 48000
Precision : 16-bit
Duration : 00:05:40.11 = 16325136 samples ~ 25508 CDDA sectors
File Size : 13.6M
Bit Rate : 320k
Sample Encoding: MPEG audio (layer I, II or III)
Comments :
Title=Fated
Artist=Dysangelium
Album=Death Leading
Tracknumber=02
Year=2019
Genre=Black Metal



[ Hidden Text ]

Posted by: Dmitry1977 Oct 8 2019, 11:47:54

Превосходно!
Первый альбом вроде был в духе Dissection, а тут поехали в набившую оскомину ортодоксовщину аля Ofermod, но круто получилось!

Posted by: Velmi Oct 8 2019, 18:42:55



Dysangelium - 2019 - Death Leading
World Terror Committee - W.T.C.176

Bandcamp 320 Kbps @ Yadi.sk
[ Hidden Text ]

Posted by: Samaritianin Oct 8 2019, 20:46:46

ЦИТАТА(FlammenTod666 @ 8th October 2019 - 20:05:01) *
flac?

FLAC (Tracks) 289 mb
[ Hidden Text ]

Posted by: Sangreal Oct 8 2019, 20:48:45

Full album stream.

https://wtcproductions.bandcamp.com/album/death-leading

Posted by: templ Oct 28 2019, 20:36:05

вокал внезапно дичайше напомнил ян-криса де койера из gorefest. что только в плюс, разумеется, хотя музыка и без того весьма примечательна. прекрасная работа!

Posted by: smes Apr 7 2021, 14:57:21

ЦИТАТА(templ @ Oct 29 2019, 00:36:05) *
вокал внезапно дичайше напомнил ян-криса де койера из gorefest.

В натуре. Шикарная работа. до дыр буду слушать

Powered by Invision Power Board
© Invision Power Services