Printable Version of Topic

Click here to view this topic in its original format

Metal Area - Extreme Music Portal _ Archive _ Production Grey - Channel Your Aggressions (1995)

Posted by: Proteus_666 Oct 25 2019, 23:34:27

http://metalarea.org/images/audiocovers/2019_Oct/acov_tid329353.jpg

*Artist: Production Grey
*Album: Channel Your Aggressions
*Year: 1995
*Genre: Groove/Death Metal
*Country: United States
*Format: mp3@CBR320kbps
*Size: 55MB

Tracklist:
1. The One 03:48
2. Prophecy 04:20
3. Bloodstorm 04:32
4. The Servant 02:03
5. What's The Score 03:09
6. Clairvoyance 04:59
7. Suffer Unto Me 02:07
8. D.U.I. 04:12
******************************
Total playing time: 29:10

https://myspace.com/productiongrey
https://www.youtube.com/watch?v=ty0XzvNKopk

Extended info
Recorded October, 1995 at R.T. Audio.


Technical info

Input File: 01-The One.mp3
Channels : 2
Sample Rate : 44100
Precision : 16-bit
Duration : 00:03:48.78 = 10089330 samples = 17158.7 CDDA sectors
File Size : 9.15M
Bit Rate : 320k
Sample Encoding: MPEG audio (layer I, II or III)
Comments :
Title=The One
Artist=Production Grey
Album=Channel Your Aggressions
Tracknumber=1
Year=1995
Genre=Metal



[ Hidden Text ]

Posted by: KVRT Oct 26 2019, 19:49:51


Powered by Invision Power Board
© Invision Power Services