Printable Version of Topic

Click here to view this topic in its original format

Metal Area - Extreme Music Portal _ Archive _ Vestibulum Vacuüi - Het Niets Onvernomen, Een Verzegeld Lot (2017)

Posted by: lestllk Nov 10 2019, 23:24:07

https://metalarea.org/images/audiocovers/2019_Nov/acov_tid330161.jpg

*Artist: Vestibulum Vacuüi
*Album: Het Niets Onvernomen, Een Verzegeld Lot
*Year: 2017
*Genre: Raw Black Metal
*Country: Netherlands
*Format: mp3@VBR276kbps
*Size: 69MB

Tracklist:
1. Gevurot 00:59
2. Het ontvangen van de hand 06:42
3. Kafkaëske vervoering, de geplukte vrucht en onheil 06:33
4. Vervlogen, om nimmer terug te keren 05:45
5. Het gesponnen web, de klok drijft tot waanzin 07:53
6. Ketens van ruimte en tijd, een schrei uit wanhoop 07:02
******************************
Total playing time: 34:54

Extended info
The Throat

Tape-rip by Zero


Technical info

Input File: 01 Gevurot.mp3
Channels : 2
Sample Rate : 44100
Precision : 16-bit
Duration : 00:00:57.42 = 2532090 samples = 4306.28 CDDA sectors
File Size : 1.96M
Bit Rate : 273k
Sample Encoding: MPEG audio (layer I, II or III)
Comments :
Title=Gevurot
Artist=Vestibulum Vacuüi
Album=Het Niets Onvernomen, Een Verzegeld Lot
Tracknumber=01/6
Year=2017
Discnumber=1/1



[ Hidden Text ]

Powered by Invision Power Board
© Invision Power Services