Printable Version of Topic

Click here to view this topic in its original format

Metal Area - Extreme Music Portal _ Archive _ Hyperborea - Umbra (2019)

Posted by: necroscum Nov 14 2019, 11:58:43

https://metalarea.org/images/audiocovers/2019_Nov/acov_tid330286.jpg

*Artist: Hyperborea
*Album: Umbra
*Year: 2019
*Genre: Death Metal
*Country: Bulgaria
*Format: mp3@CBR320kbps
*Size: 99MB

Tracklist:
01. Jung's Forewarning 01:13
02. Home of My Misery 04:00
03. From Within 04:49
04. Silent Stream 05:40
05. Supermacists 03:17
06. Two Extremities 04:46
07. Unwelcome 05:19
08. Wrong Planet Syndrome 05:50
09. Atavistic Fear 07:30
******************************
Total playing time: 42:24

https://www.facebook.com/pages/HYPERBOREA/220291968354
https://soundcloud.com/hyperboreaband/
https://www.youtube.com/watch?v=snpE1ONDKDM

Technical info

Input File: 02. Home of My Misery.mp3
Channels : 2
Sample Rate : 44100
Precision : 16-bit
Duration : 00:03:59.92 = 10580516 samples = 17994.1 CDDA sectors
File Size : 9.87M
Bit Rate : 329k
Sample Encoding: MPEG audio (layer I, II or III)
Comments :
Title=Home of My Misery
Artist=Hyperborea
Album=Umbra
Tracknumber=2
Year=2019-11-15
Genre=Metal
Discnumber=1



[ Hidden Text ]

Posted by: Paradayz Nov 15 2019, 17:14:28

Классный альбом, молодцы болгары!

Posted by: Contageon Nov 15 2019, 21:07:26

Понравилось!

Posted by: Язва Nov 26 2019, 11:59:12

Судя по моим же отзывам, раньше болгары мне больше нравились.
На третьем лонгплее слышу довольно заурядный death metal, сыгранный однако качественно и по канонам, но без огонька и изюминки.
Скорее 7/10, чем 8/10

Posted by: KVRT Jul 29 2020, 19:24:12

[ Hidden Text ]

Powered by Invision Power Board
© Invision Power Services