Printable Version of Topic

Click here to view this topic in its original format

Metal Area - Extreme Music Portal _ Archive _ Admiral Sir Cloudesley Shovell - Very Uncertain Times (2019)

Posted by: Necrokilldozer Nov 23 2019, 17:41:45

http://metalarea.org/images/audiocovers/2019_Nov/acov_tid330710.jpg

*Artist: Admiral Sir Cloudesley Shovell
*Album: Very Uncertain Times
*Year: 2019
*Genre: Psychedelic/Hard Rock/Heavy Metal
*Country: United Kingdom
*Format: mp3@CBR320kbps
*Size: 85MB

Tracklist:
1.Very Uncertain Times 05:28
2.Ten Years Later 03:24
3.The Third Degree 05:20
4.Mr. Freedom 03:17
5.Iceberg 04:27
6.Blackworth Quarry 04:32
7.Biscuits for Victor 04:13
8.No Man's Land 04:53
******************************
Total playing time: 35:34

https://music.apple.com/us/album/very-uncertain-times/1477018046

Extended info
Line - up:

Louis Comfort-Wiggett - Bass (ex-Bronco Bullfrog, ex-The Immediates)
Johnny Gorilla - Vocals, Guitars (Gorilla)
Serra Petale - Drums



Technical info

Input File: 07. Biscuits For Victor.mp3
Channels : 2
Sample Rate : 44100
Precision : 16-bit
Duration : 00:04:13.56 = 11182040 samples = 19017.1 CDDA sectors
File Size : 10.2M
Bit Rate : 322k
Sample Encoding: MPEG audio (layer I, II or III)
Comments :
Title=Biscuits For Victor
Artist=Admiral Sir Cloudesley Shovell
Album=Very Uncertain Times
Tracknumber=7
Year=2019
Genre=Psychedelic/Hard Rock/Heavy Metal



[ Hidden Text ]

Posted by: KVRT Nov 24 2019, 11:18:21



Posted by: avkruchinin Nov 24 2019, 11:54:01

Под Лемми и Оззи сработано.

Posted by: KVRT Nov 24 2019, 13:23:01

ЦИТАТА(avkruchinin @ Nov 24 2019, 10:54:01) *
Под Лемми и Оззи сработано.

но потрачено 1488.gif

Posted by: vosmidesijatye Nov 25 2019, 08:03:01

Все их прядыдущие альбомцы не впечатляли. Чекну этот, може здесь будет хорошечно.

Powered by Invision Power Board
© Invision Power Services