Printable Version of Topic

Click here to view this topic in its original format

Metal Area - Extreme Music Portal _ Archive _ Desolator - Last Wish (2012)

Posted by: slack Feb 6 2020, 13:29:37

https://metalarea.org/images/audiocovers/2020_Feb/acov_tid333538.jpg

*Artist: Desolator
*Album: Last Wish
*Year: 2012
*Genre: Death Metal
*Country: Poland
*Format: mp3@CBR320kbps
*Size: 78MB

Tracklist:
01. Intro (Eternal Damnation) 02:03
02. Last Wish (3) 04:40
03. Capital Punishment (7) 03:10
04. Merciless Dementia (2) 03:20
05. Born of Sin (9) 03:48
06. Soul to Machine (4) 05:39
07. Again (6) 03:23
08. Behind the Mask (8) 03:30
09. Turned Around (Sickness) [5] 04:15
******************************
Total playing time: 33:48

Technical info

Input File: 02 Last Wish (3).mp3
Channels : 2
Sample Rate : 44100
Precision : 16-bit
Duration : 00:04:41.10 = 12396334 samples = 21082.2 CDDA sectors
File Size : 11.4M
Bit Rate : 324k
Sample Encoding: MPEG audio (layer I, II or III)
Comments :
Title=Last Wish
Artist=Desolator
Album=2012 Last Wish
Tracknumber=02/09
Year=2012
Genre=Death Metal



[ Hidden Text ]

Posted by: AHBAnep Feb 7 2020, 08:56:14

Лениво превью найти, да?

https://desolatordeathmetal.bandcamp.com/album/last-wish
https://music.yandex.ru/album/1477138
Добротная дезня.

Posted by: thenecromancer May 4 2021, 17:49:37

https://desolatordeathmetal.bandcamp.com

Powered by Invision Power Board
© Invision Power Services