Printable Version of Topic

Click here to view this topic in its original format

Metal Area - Extreme Music Portal _ Archive _ No Raza - Transcending Material Sins (2020)

Posted by: Samaritianin Mar 19 2020, 11:57:32

https://metalarea.org/images/audiocovers/2020_Mar/acov_tid335055.jpg

*Artist: No Raza
*Album: Transcending Material Sins
*Year: 2020
*Genre: Death Metal
*Country: Colombia
*Format: mp3@CBR320kbps
*Size: 126MB

Tracklist:
1. On the Verge of Dying Out 06:04
2. Ancient Wars 04:22
3. Reborn 05:09
4. Fratricide 05:17
5. Sail in Rot 04:39
6. Alteración mental 04:05
7. Decontamination 05:27
8. Scorn 05:02
9. Atrición 05:56
10. En carne y hueso 06:01
11. Transcending Material Sins 02:48
******************************
Total playing time: 54:50

https://norazametal.bandcamp.com/
https://www.facebook.com/NORAZAMETAL/

Extended info
Mike Spillane Bass
Jairo Gómez Drums
Juan Guillermo Cano Vocals, Guitars
Juan Camilo Sanchez Guitars (lead) (2014-present)
See also: Isis, ex-Proxima Centaury


Technical info

Input File: 4 - Fratricide.mp3
Channels : 2
Sample Rate : 44100
Precision : 16-bit
Duration : 00:05:18.01 = 14024197 samples = 23850.7 CDDA sectors
File Size : 12.8M
Bit Rate : 322k
Sample Encoding: MPEG audio (layer I, II or III)
Comments :
Title=Fratricide
Artist=No Raza
Album=Transcending Material Sins
Tracknumber=4
Year=2020
Genre=Rock / Hard Rock / Metal
Discnumber=1



[ Hidden Text ]

Posted by: Samaritianin Mar 20 2020, 03:35:41

Cloud Mail 320
[ Hidden Text ]

Posted by: andris Mar 22 2020, 20:37:50

Местами затянуто но в целом приличный музон , соляки приятные и звук сочный!!!

Posted by: bestmen Mar 28 2020, 08:11:30

отличная команда , этот опус зашёл просто на ура !!! попали в настроение !!!

Posted by: hammer Apr 3 2020, 12:41:18


Posted by: judaz Apr 15 2020, 06:52:57

Альбому ощутимо не хватает драйва. Больше половины песен состоит из насквозь вторичных риффов, выдержанных в усыпляющем среднем темпе, и это просто невыносимо.
По большому счету альбом вытаскивают немногие скоростные треки. Вот они звучат по-настоящему угарно. Оставили бы только их - получилась бы клевая ипишка.

Powered by Invision Power Board
© Invision Power Services