Printable Version of Topic

Click here to view this topic in its original format

Metal Area - Extreme Music Portal _ Archive _ Äkth Gánahëth - Crowned In Shadows (2020)

Posted by: smysl Apr 10 2020, 08:46:59

http://metalarea.org/images/audiocovers/2020_Apr/acov_tid336105.jpg

*Artist: Äkth Gánahëth
*Album: Crowned In Shadows
*Year: 2020
*Genre: Raw Black Metal/Ambient
*Country: Iceland
*Format: mp3@CBR320kbps
*Size: 66MB

Tracklist:
1.The Gates of Hel 03:45
2.The Battle on Vígríðr 04:05
3.Crowned in Shadows 04:09
4.The Night Spreads Her Wings 04:08
5.Under the Spectral Full Moon 04:12
6.Brimstone and Ash 04:17
7.Journey Through the Desert of Ice 04:06
******************************
Total playing time: 28:42

https://akthganaheth.bandcamp.com/album/crowned-in-shadows

Technical info

Input File: 02 The Battle on Vígríðr.mp3
Channels : 2
Sample Rate : 44100
Precision : 16-bit
Duration : 00:04:05.28 = 10816848 samples = 18396 CDDA sectors
File Size : 9.86M
Bit Rate : 322k
Sample Encoding: MPEG audio (layer I, II or III)
Comments :
Title=The Battle on Vígríðr
Artist=Äkth Gánahëth
Album=Crowned In Shadows
Tracknumber=2
Year=2020
Genre=Black Metal



[ Hidden Text ]

Posted by: antonovivan Apr 10 2020, 18:52:21

Неплохая вещица. Для дебюта - так вообще хорошо. Буду переслушивать!

Posted by: igore2911 Apr 11 2020, 10:30:53

Трушно. Басы решил вообще убрать вместе с ударными.

Posted by: Starseeker Apr 11 2020, 12:35:22

Надо вслушаться - по превью вроде неплохая сырь с уместными клавишами

Posted by: blackwerwolf Apr 12 2020, 00:47:20

Крутая работа !

Posted by: judaz Apr 12 2020, 18:55:09

Старорежимные клавиши хороши, жаль что не в каждом треке они есть.

Posted by: rimfrost Apr 13 2020, 16:38:08

Mirror pls !

Posted by: vosmidesijatye Apr 13 2020, 16:52:24

@320

[ Hidden Text ]

[ Hidden Text ]

Posted by: SAPOGi Apr 13 2020, 17:16:11


Posted by: Sangreal Apr 13 2020, 18:10:35

Ниочём.

Posted by: Moonshtook Apr 13 2020, 18:43:08

ЦИТАТА(Sangreal @ Apr 13 2020, 20:10:35) *
Ниочём.

Твой комментарий

Posted by: Sangreal Apr 15 2020, 15:26:19

ЦИТАТА(Moonshtook @ Apr 13 2020, 22:43:08) *


Я бы с удовольствием сразился с тобой в интеллектуальной дуэли. Но ты, как вижу, безоружен.

Powered by Invision Power Board
© Invision Power Services