Printable Version of Topic

Click here to view this topic in its original format

Metal Area - Extreme Music Portal _ Archive _ Halén - Idleness (2020)

Posted by: Gelukas Apr 17 2020, 07:48:08

https://metalarea.org/images/audiocovers/2020_Apr/acov_tid336398.png

*Artist: Halén
*Album: Idleness
*Year: 2020
*Genre: Power Metal
*Country: Sweden
*Format: mp3@CBR320kbps
*Size: 92MB

Tracklist:
1. There´s no Use 04:48
2. Daydream 03:39
3. Tears 04:49
4. Empire 05:19
5. Labyrinth 05:02
6. Dreams 04:44
7. AnyMore 02:47
8. Wonders 04:19
9. Blown Away 04:28
******************************
Total playing time: 39:55

https://olahalen.bandcamp.com/
https://www.facebook.com/Hal%C3%A9n-389829898022554/?fref=ts

Technical info

Input File: 02. Daydream.mp3
Channels : 2
Sample Rate : 44100
Precision : 16-bit
Duration : 00:03:39.37 = 9673997 samples = 16452.4 CDDA sectors
File Size : 8.83M
Bit Rate : 322k
Sample Encoding: MPEG audio (layer I, II or III)
Comments :
Title=Daydream
Artist=Halén
Album=Idleness
Tracknumber=2/9
Year=2020
Genre=17
Discnumber=1/1



[ Hidden Text ]

Posted by: kiol1 Apr 18 2020, 03:23:37

https://www.youtube.com/watch?v=tTwR6raWRkg

Posted by: sadmannn Apr 18 2020, 08:09:34

Stratovarius 90-х, усердно косят, как вокалом так и музыкой. Ну, может кому сейчас такое и нужно, учитывая практически полное опустошение в жанре

Posted by: + ATheisT + Apr 26 2020, 20:21:17

ЦИТАТА(sadmannn @ Apr 18 2020, 10:09:34) *
Stratovarius 90-х, усердно косят, как вокалом так и музыкой. Ну, может кому сейчас такое и нужно, учитывая практически полное опустошение в жанре


что толку в таком копировании, если нет материала как в шедевральном "Episode" (1996), так себе, обычные подражатели.
Я считаю что нет музыки для "тогда" и для "сейчас", музыка либо качественная, либо нет, первую будут слушать поколениями, а о второй быстро забудут.

Posted by: keeperofmetal May 2 2020, 04:19:59

Great singer from Sweden!

Powered by Invision Power Board
© Invision Power Services