Printable Version of Topic

Click here to view this topic in its original format

Metal Area - Extreme Music Portal _ Archive _ Mantar - Grungetown Hooligans Ii (2020)

Posted by: necroscum Jun 25 2020, 12:15:07

https://metalarea.org/images/audiocovers/2020_Jun/acov_tid339323.jpg

*Artist: Mantar
*Album: Grungetown Hooligans Ii
*Year: 2020
*Genre: Sludge/Black Metal
*Country: Germany
*Format: mp3@CBR320kbps
*Size: 56MB

Tracklist:
01. The Bomb (L7 cover) 02:52
02. Puss (The Jesus Lizard cover) 03:10
03. 100% (Sonic Youth cover) 02:21
04. Ghost Highway (Mazzy Star cover) 03:32
05. Can I Run (L7 cover) 03:58
06. Bruise Violet (Babes In Toyland cover) 02:37
07. Who You Drivin' Now (Mudhoney cover) 02:09
08. Knot (7 Year Bitch cover) 03:10
******************************
Total playing time: 23:49

https://www.facebook.com/MantarBand
https://mantar.bandcamp.com/album/grungetown-hooligans-ii
https://www.youtube.com/watch?v=VrmDSicXgL4&feature=emb_title

Technical info

Input File: 02 Puss.mp3
Channels : 2
Sample Rate : 44100
Precision : 16-bit
Duration : 00:03:16.92 = 8684216 samples = 14769.1 CDDA sectors
File Size : 7.88M
Bit Rate : 320k
Sample Encoding: MPEG audio (layer I, II or III)
Comments :
Title=Puss
Artist=Mantar
Album=Grungetown Hooligans II
Tracknumber=02/08
Year=2020-20-20
Discnumber=1/1



[ Hidden Text ]

Posted by: Dantalian Jun 26 2020, 07:09:15

облога улётная. Я сперва подумал, что это какой-то провинциальный рэп-альбом gop_spb.gif

Posted by: дивин Jun 26 2020, 18:53:46

По сути это гранж. И альбом из каверов на всяческий гранж\альтернативный рок, что в эпоху курта кобэйна всплыл. Для разнообразия интересно, но не сказал бы, что это в формат вписывается.

Posted by: downinahole Jun 27 2020, 07:23:32

Gracias

Posted by: deathic Apr 24 2022, 10:47:27

Please, re-upload.

Powered by Invision Power Board
© Invision Power Services