Printable Version of Topic

Click here to view this topic in its original format

Metal Area - Extreme Music Portal _ Archive _ Brimstone Coven - The Woes Of A Mortal Earth (2020)

Posted by: vosmidesijatye Aug 24 2020, 13:10:32

http://metalarea.org/images/audiocovers/2020_Aug/acov_tid340953.jpg

*Artist: Brimstone Coven
*Album: The Woes Of A Mortal Earth
*Year: 2020
*Genre: Doom Metal/Psychedelic Rock
*Country: United States
*Format: mp3@CBR320kbps
*Size: 82MB

Tracklist:
1. The Inferno 04:30
2. When the World is Gone 06:09
3. Live With a Ghost 06:54
4. The Darker Half 06:03
5. Secrets of the Earth 04:10
6. Song of Whippoorwill 07:35
******************************
Total playing time: 35:21

https://brimstonecoven.bandcamp.com/

Technical info

Input File: 05. Secrets Of The Earth.mp3
Channels : 2
Sample Rate : 44100
Precision : 16-bit
Duration : 00:04:10.09 = 11028837 samples = 18756.5 CDDA sectors
File Size : 10.3M
Bit Rate : 331k
Sample Encoding: MPEG audio (layer I, II or III)
Comments :
Title=Secrets Of The Earth
Artist=Brimstone Coven
Album=The Woes Of A Mortal Earth
Tracknumber=5/6
Year=2020
Genre=Rock
Discnumber=1/1



[ Hidden Text ]

Posted by: tormoz Aug 25 2020, 16:21:01

совсем забыл про них.
хорошая банда, оседлавшая волну оккультного ривайвела.
может быть не такая признанная, как истинные флагманы этого дела, и тем не менее перед нами редких достоинств музыка.
альбом прекрасен, как ни тяжело мне это признавать с оглядкой на автора темы (но даже неисправные часы иногда показывают правильное время).

отдельно стоит отметить иногда солирующую "под селима" гитару.
очень аккуратную, без явных заимствований и спекуляций, и тем не менее вполне узнаваемую.

Posted by: vosmidesijatye Aug 25 2020, 16:41:35

ЦИТАТА(tormoz @ Aug 25 2020, 18:21:01) *
как ни тяжело мне это признавать с оглядкой на автора темы (но даже неисправные часы иногда показывают правильное время).


На себя оглядывайся почаще, "исправный" Игоряша.

А заливаю я только топовый анформат.

Альбом очень хорош, но предыдущие больше нравились.

Posted by: tormoz Aug 25 2020, 16:58:57

ЦИТАТА(vosmidesijatye @ Aug 25 2020, 16:41:35) *
А заливаю я


мне, артамон, поxep, что ты заливаешь.
я этот альбом с рутрекера скачал, еслишо.

Posted by: KVRT Aug 25 2020, 19:33:53

кошшерно.. маххрово, лампово...

Posted by: judaz Sep 2 2020, 19:00:02

Расслабленный музон. Даже чересчур. Прошлый был пободрее и поинтересней.

Powered by Invision Power Board
© Invision Power Services