Printable Version of Topic

Click here to view this topic in its original format

Metal Area - Extreme Music Portal _ Archive _ Violent Attack - Violent Attack Live [live] (2006)

Posted by: canadaspaceman Oct 7 2020, 21:36:06

https://metalarea.org/images/audiocovers/2020_Oct/acov_tid342333.jpg

*Artist: https://metalarea.org/forum/index.php?showtopic=118500
*Album: Violent Attack Live [live]
*Year: 2006
*Genre: Thrash Metal
*Country: Paraguay
*Format: mp3@CBR320kbps
*Size: 104MB

Tracklist:
Side A
1. Thrashing with Hate 03:22
2. Destruction and Death 04:17
3. M.A.B. 03:30
4. Nuclear Crossfire 04:42
5. Troops of Doom (Sepultura cover) 03:33
6. Massacra (Hellhammer cover) 02:35
Side B
7. Violent Attack 05:42
8. When the Barbarity Reigned 04:22
9. Brain Dead 04:25
10. They Shall Pay 03:16
11. Dead City (Violent Force cover) 03:58
******************************
Total playing time: 43:42

Extended info
Song 1-5: Live, December 25, 2004
Song 6: Rehearsal 2003 (bonus)
Song 7-11: Live 2002

For fans into rough/dirty thrash metal,
eg. SODOM (In the Sign of Evil, Obsessed by Cruelty), DESTRUCTION (Sentence of Death, Infernal Overkill), KREATOR (Endless Pain), SEPULTURA (Bestial Devastation), etc.

Release date: September 2006
Catalog ID: KV-R 013
Limited edition, Hand-numered, 500 Cassette copies
Label: KuravilĂș Productions

tape rip by me

NO audio cleaning used, and tape hiss can be heard.
Don't like that? then fuck off.
Not for wimps

https://www.metal-archives.com/albums/Violent_Attack/Violent_Attack/139719

https://www.discogs.com/Violent-Attack-Live/release/5853574


Technical info

Input File: 01. Thrashing with Hate.mp3
Channels : 2
Sample Rate : 44100
Precision : 16-bit
Duration : 00:03:22.62 = 8935366 samples = 15196.2 CDDA sectors
File Size : 8.36M
Bit Rate : 330k
Sample Encoding: MPEG audio (layer I, II or III)
Comments :
Title=Thrashing with Hate
Artist=Violent Attack (Paraguay)
Album=Live Album
Tracknumber=1
Year=2006
Genre=Thrash Metal



[ Hidden Text ]

Posted by: thenecromancer Dec 20 2020, 14:01:45

QUOTE(canadaspaceman @ Oct 7 2020, 21:36:06) *
For fans into rough/dirty thrash metal...
Not for wimps

25.gif 9.gif metaler.gif

Posted by: asgarddistro May 27 2022, 17:33:20

[ Hidden Text ]

Posted by: canadaspaceman Sep 30 2022, 00:35:14

QUOTE(asgarddistro @ May 27 2022, 17:33:20) *

Bitrate: WAV files (1411 kbps)
Size: 445 MB
ulozto link
[ Hidden Text ]

Powered by Invision Power Board
© Invision Power Services