Printable Version of Topic

Click here to view this topic in its original format

Metal Area - Extreme Music Portal _ Archive _ Black Fate - Ithaca (2020)

Posted by: necroscum Oct 22 2020, 11:57:35

https://metalarea.org/images/audiocovers/2020_Oct/acov_tid342804.jpg

*Artist: Black Fate
*Album: Ithaca
*Year: 2020
*Genre: Progressive/Power Metal
*Country: Greece
*Format: mp3@CBR320kbps
*Size: 120MB

Tracklist:
01. From Ashes & Dust 01:35
02. Ithaca 05:29
03. Maze 03:54
04. Savior Machine 04:22
05. Fortress Of Solitude 04:17
06. Nemesis 04:57
07. Secret Place 04:15
08. Reach For The Stars 04:35
09. Rainbow's End 03:49
10. One Last Breath 04:50
11. Queen Of Shadows 04:38
12. Circle Of Despair 05:33
******************************
Total playing time: 52:14

https://www.facebook.com/blackfategreece/
https://www.youtube.com/watch?v=UPLtmcqVtDM

Technical info

Input File: 03. Maze.mp3
Channels : 2
Sample Rate : 44100
Precision : 16-bit
Duration : 00:00:00.23 = 10319 samples = 17.5493 CDDA sectors
File Size : 9.45M
Bit Rate : 323M
Sample Encoding: MPEG audio (layer I, II or III)
Comments :
Title=Maze
Artist=Black Fate
Album=Ithaca
Tracknumber=3
Year=2020-23-10
Genre=Heavy Metal
Discnumber=1



[ Hidden Text ]

Posted by: sadmannn Oct 22 2020, 20:30:05

парни довольно удачно продолжают топить под Kamelot
релиз приятный, но вот изящества аранжировок не хватает, и хитовости
но работа достойная

Posted by: Andrew Oct 23 2020, 07:40:56

Материал и вправду хорош. По стилистике скорее Progressive Power Metal

Posted by: AHBAnep Oct 23 2020, 15:01:58

[ Hidden Text ]

Posted by: DenisKov Nov 10 2020, 16:18:52

Третьесорт, весь альбом не осилил, вокал так себе.

Posted by: Сварог Барг Jun 10 2021, 20:37:06

Добротный хэви-пауэр.

Powered by Invision Power Board
© Invision Power Services