Printable Version of Topic

Click here to view this topic in its original format

Metal Area - Extreme Music Portal _ Archive _ Aphotic Zone - In The Name Of Sorrow (2019)

Posted by: Samaritianin Dec 7 2020, 21:48:03

https://metalarea.org/images/audiocovers/2020_Dec/acov_tid344818.jpg

*Artist: Aphotic Zone
*Album: In The Name Of Sorrow
*Year: 2019
*Genre: Atmospheric Doom/Death Metal
*Country: Iran
*Format: mp3@CBR320kbps
*Size: 69MB

Tracklist:
1. Broken Emotions (Intro) 02:34 instrumental
2. Love Is the Only Way 04:42
3. Signs of Misery 03:37
4. Some Minutes to Death 05:53
5. Night Gates 05:17
6. Cold Morning 03:59
7. Rain and Tears 04:11
******************************
Total playing time: 30:13

https://aphoticzone.bandcamp.com/album/in-the-name-of-sorrow

Extended info
Mohammadreza Alvari Everything


Technical info

Input File: 05 - Night Gates.mp3
Channels : 2
Sample Rate : 44100
Precision : 16-bit
Duration : 00:05:17.06 = 13982170 samples = 23779.2 CDDA sectors
File Size : 12.7M
Bit Rate : 321k
Sample Encoding: MPEG audio (layer I, II or III)
Comments :
Title=Night Gates
Artist=Aphotic Zone
Album=In The Name Of Sorrow
Tracknumber=05
Year=2019
Genre=Atmospheric Doom Metal



[ Hidden Text ]

Posted by: GRAF Dec 8 2020, 12:40:10

Режущий слух звук из Ирана. Не знаю, как вот это вот, можно обозвать "Atmospheric Doom Death Metal".

Posted by: KVRT Dec 11 2020, 20:39:49

приятные инструментальные пассажи, вокал - сумбурный, но общей картины не портит.. а вот, кассательно гитарных секций - скудненько.. но как для однолюдного проекта, в добавок из ирана... аранжировка и сведение материала наталкивает на параллели с Filosofem 1488.gif
конечно жэ, не номиминант на признание года, но и внимания обязан быть удостоен

Posted by: avather Dec 11 2020, 22:24:55

Нормас. Слушать интересно

Posted by: Kitalter Feb 12 2021, 16:14:46

нормально, хоть и не зацепили

Powered by Invision Power Board
© Invision Power Services