Printable Version of Topic

Click here to view this topic in its original format

Metal Area - Extreme Music Portal _ Archive _ Medenera - Argento (2020)

Posted by: Samaritianin Dec 23 2020, 19:14:45

http://metalarea.org/images/audiocovers/2020_Dec/acov_tid345375.jpg

*Artist: Medenera
*Album: Argento
*Year: 2020
*Genre: Atmospheric Black Metal
*Country: Italy
*Format: mp3@CBR320kbps
*Size: 173MB

Tracklist:
01. Argentea I
02. Argentea II
03. Argentea III
04. Tempora veris I
05. Tempora veris II
06. Tempora veris III
07. Frigida ventis I
08. Frigida ventis II
09. Frigida ventis III
10. Igneus I
11. Igneus II
12. Igneus III
13. Ghost Track
******************************
Total playing time: 1:08:07

https://medenera.bandcamp.com/album/argento
https://www.facebook.com/medenera/

Extended info
CD-Rip+scans


Technical info

Input File: 07. Frigida Ventis I.mp3
Channels : 2
Sample Rate : 44100
Precision : 16-bit
Duration : 00:05:31.89 = 14636525 samples = 24892 CDDA sectors
File Size : 13.3M
Bit Rate : 320k
Sample Encoding: MPEG audio (layer I, II or III)
Comments :
Title=Frigida Ventis I
Artist=Medenera
Album=Argento
Tracknumber=07
Year=2020
Genre=Atmospheric Black Metal



[ Hidden Text ]

Posted by: Olrak Dec 27 2020, 19:56:09

Приятная музыка! Утяжелённая Энигма, так сказать... Работать под такую хорошо! smile4.gif

Powered by Invision Power Board
© Invision Power Services