Printable Version of Topic

Click here to view this topic in its original format

Metal Area - Extreme Music Portal _ Archive _ Chaos Sculptor - Chaos Sculptor (2020)

Posted by: vasilisk Dec 24 2020, 10:55:26

http://metalarea.org/images/audiocovers/2020_Dec/acov_tid345392.jpg

*Artist: Chaos Sculptor
*Album: Chaos Sculptor
*Year: 2020
*Genre: Black/Death Metal
*Country: United States
*Format: mp3@CBR320kbps
*Size: 130MB

Tracklist:
1. Fatal Misanthropy
2. The 12th Equilibrium
3. Suffering the Modern Day
4. Dismembering the Predator
5. Five Points to Augment
6. Ruling Through Vampyric Miasma
7. Cast My Soul Away
8. Trial of the Merciless
9. Annihilation Archetype
10. Time is a Flat Circle
******************************
Total playing time: 56:06

Technical info

Input File: 04 - Dismembering the Predator.mp3
Channels : 2
Sample Rate : 44100
Precision : 16-bit
Duration : 00:04:08.49 = 10958541 samples = 18637 CDDA sectors
File Size : 10.2M
Bit Rate : 327k
Sample Encoding: MPEG audio (layer I, II or III)
Comments :
Title=Dismembering the Predator
Artist=Chaos Sculptor
Album=Chaos Sculptor
Tracknumber=4
Year=2020



[ Hidden Text ]

Posted by: kefka Dec 25 2020, 04:03:19

https://chaossculptor.bandcamp.com/album/chaos-sculptor

Powered by Invision Power Board
© Invision Power Services