Printable Version of Topic

Click here to view this topic in its original format

Metal Area - Extreme Music Portal _ Archive _ Dysthanasia - Nanohana (2020)

Posted by: Necrokilldozer Dec 27 2020, 19:58:38

http://metalarea.org/images/audiocovers/2020_Dec/acov_tid345485.jpg

*Artist: Dysthanasia
*Album: Nanohana
*Year: 2020
*Genre: Doom/Stoner Metal
*Country: Australia
*Format: mp3@CBR320kbps
*Size: 125MB

Tracklist:
1. God in the Gaps 08:22
2. I Don't Want You 05:56
3. Father of the Dead 05:34
4. Chloe 10:38
5. Cherry Tree 04:58
6. [Nanohana intro] 04:41
7. Nanohana 11:21
8. Outro 02:05
******************************
Total playing time: 53:35

https://dysthanasia.bandcamp.com/releases

Technical info

Input File: 03. Father of the Dead.mp3
Channels : 2
Sample Rate : 44100
Precision : 16-bit
Duration : 00:05:35.04 = 14775352 samples = 25128.1 CDDA sectors
File Size : 13.4M
Bit Rate : 320k
Sample Encoding: MPEG audio (layer I, II or III)
Comments :
Title=Father of the Dead
Artist=Dysthanasia
Album=Nanohana
Tracknumber=3
Year=2019
Genre=Doom/Stoner Metal



[ Hidden Text ]

Powered by Invision Power Board
© Invision Power Services