Printable Version of Topic

Click here to view this topic in its original format

Metal Area - Extreme Music Portal _ Archive _ Konquest - The Night Goes On (2021)

Posted by: Samaritianin Jan 7 2021, 23:25:22

http://metalarea.org/images/audiocovers/2021_Jan/acov_tid345860.jpg

*Artist: Konquest
*Album: The Night Goes On
*Year: 2021
*Genre: Heavy Metal
*Country: Italy
*Format: mp3@CBR320kbps
*Size: 81MB

Tracklist:
1. Theme Of The Konqueror 02:05
2. The Night Goes On 04:26
3. Too Late 04:20
4. Keep Me Alive 04:01
5. Fall Of The Konqueror 03:54
6. Helding Back The Tears 04:36
7. Heavy Heart 04:34
8. The Vision 07:19
******************************
Total playing time: 35:15

https://konquestband.bandcamp.com/album/the-night-goes-on

Extended info
Alex Rossi Everything
See also: Dragnet, Fate, ex-The Rottens, Carlos Dunga, Destinazione Finale, Iena, xDELOREANx, ex-Eleim


Technical info

Input File: 07 - Heavy Heart.mp3
Channels : 2
Sample Rate : 44100
Precision : 16-bit
Duration : 00:04:34.38 = 12100246 samples = 20578.6 CDDA sectors
File Size : 11.1M
Bit Rate : 324k
Sample Encoding: MPEG audio (layer I, II or III)
Comments :
Title=Heavy Heart
Artist=Konquest
Album=The Night Goes On
Tracknumber=7
Year=2021
Genre=Hard Rock



[ Hidden Text ]

Posted by: nikitakapernaumov Jan 8 2021, 12:19:14

вокал супир. и песни есть цыпляющие. вот где талант а не у вашых лайхов и дарк транквилидей паганых

Posted by: goxther Jan 8 2021, 13:40:39

Вокал слабый, как будто Росси сейчас задохнется, музыка вторична. Я хз, чем там восхищаться

Posted by: Andrew Jan 8 2021, 16:42:12

ЦИТАТА(nikitakapernaumov @ Jan 8 2021, 15:19:14) *
вокал супир. и песни есть цыпляющие. вот где талант а не у вашых лайхов и дарк транквилидей паганых

Вот это поворот....Как таким посредственным можно восхищаться???????

Posted by: nikitakapernaumov Jan 8 2021, 19:03:27

трольте ковонить другова. а у сабжа вон уже две прадажы за вечер на бэндкампе

Posted by: vasilisk Jan 8 2021, 20:49:51

ЦИТАТА(nikitakapernaumov @ Jan 8 2021, 20:03:27) *
трольте ковонить другова. а у сабжа вон уже две прадажы за вечер на бэндкампе

Ты что с детского сада? 13.gif

Posted by: Darkness Jan 9 2021, 21:17:49

ЦИТАТА(vasilisk @ Jan 8 2021, 21:49:51) *
Ты что с детского сада? 13.gif

Такие в других учреждениях сидят, с решеткам на окнах и галоперидолом вместо еды.Только даун будет таким отстоем восхищаться.Сбежал видимо из лечебницы клиент и к нам занесло.

Posted by: nikitakapernaumov Jan 10 2021, 20:57:10

ЦИТАТА(Darkness @ Jan 9 2021, 21:17:49) *
Такие в других учреждениях сидят, с решеткам на окнах и галоперидолом вместо еды.Только даун будет таким отстоем восхищаться.Сбежал видимо из лечебницы клиент и к нам занесло.

чо, на двачике вам ниотвечаю тут миня решыл выцыпить 15.gif

Posted by: Victim of fate Mar 8 2021, 16:06:02

группа из 70-х,но их зря разбудили
+ Никита из школы всю тему портит и смешит))))

Powered by Invision Power Board
© Invision Power Services