Printable Version of Topic

Click here to view this topic in its original format

Metal Area - Extreme Music Portal _ Archive _ Feorhwund - Feorhwund [ep] (2021)

Posted by: Kazoth Jan 26 2021, 20:48:25

https://metalarea.org/images/audiocovers/2021_Jan/acov_tid346524.jpg

*Artist: Feorhwund
*Album: Feorhwund [ep]
*Year: 2021
*Genre: Black Metal
*Country: United States
*Format: mp3@CBR320kbps
*Size: 53MB

Tracklist:
1. Inwitspell 04:00
2. Dryhtenbealu I 04:49
3. Sinsorg 04:02
4. Dryhtenbealu II 06:41
******************************
Total playing time: 19:32

https://feorhwund.bandcamp.com/releases

Technical info

Input File: Feorhwund - 2021 - Feorhwund (EP)_[metalarea.org]_by_Kazoth.rar
Channels : 2
Sample Rate : 44100
Precision : 16-bit
Duration : 00:19:38.31 = 51963515 samples = 88373.3 CDDA sectors
File Size : 55.9M
Bit Rate : 380k
Sample Encoding: MPEG audio (layer I, II or III)



[ Hidden Text ]

Powered by Invision Power Board
© Invision Power Services