Printable Version of Topic

Click here to view this topic in its original format

Metal Area - Extreme Music Portal _ Archive _ Bellwethr - Into The Twisted Limbs (2021)

Posted by: vasilisk Feb 5 2021, 00:25:48

http://metalarea.org/images/audiocovers/2021_Feb/acov_tid346893.jpg

*Artist: Bellwethr
*Album: Into The Twisted Limbs
*Year: 2021
*Genre: Depressive Black Metal
*Country: United States
*Format: mp3@CBR320kbps
*Size: 148MB

Tracklist:
01. Fading 02:10
02. Revelation in Solemn Oak 24:59
03. Interlude 04:01
04. A Plea to the Somber 06:52
05. Autumn Brings My Dread 06:24
06. Interlude II 03:20
07. Eternal Repose 08:57
08. Memento Mori 07:22
******************************
Total playing time: 1:04:05

Technical info

Input File: 04 - A Plea to the Somber.mp3
Channels : 2
Sample Rate : 44100
Precision : 16-bit
Duration : 00:06:51.74 = 18157778 samples = 30880.6 CDDA sectors
File Size : 16.6M
Bit Rate : 322k
Sample Encoding: MPEG audio (layer I, II or III)
Comments :
Title=A Plea to the Somber
Artist=Bellwethr
Album=Into the Twisted Limbs
Tracknumber=4
Year=2021
Discnumber=1/1



[ Hidden Text ]

Posted by: AlexCrazy Feb 5 2021, 08:25:13

https://bellwethr.bandcamp.com/album/into-the-twisted-limbs

Posted by: Victim of fate Feb 6 2021, 06:35:39

что то невнятное прохрипел,сказал
музыки накидал в разнобой и вот 22.gif 23.gif

Posted by: Storky Feb 23 2021, 13:08:51

ЦИТАТА(Victim of fate @ Feb 6 2021, 08:35:39) *
что то невнятное прохрипел,сказал
музыки накидал в разнобой и вот 22.gif 23.gif

Думаю надо эксплуатировать тэг low-fi. Такие релизы имеют свою аудиторию на МА и изи набирают 20 сенек, когда такого же уровня музыки обычный БМ набирает 12.
На свой вкус я бы чекал релизы low-fi + raw BM, а low-fi + BM/ABM игнорил.

Powered by Invision Power Board
© Invision Power Services