Printable Version of Topic

Click here to view this topic in its original format

Metal Area - Extreme Music Portal _ Archive _ Visceral Uprooting - 50​.​39​-​square​-​kilometer Mass Grave (2021)

Posted by: Necrokilldozer Feb 13 2021, 20:08:01

http://metalarea.org/images/audiocovers/2021_Feb/acov_tid347319.jpg

*Artist: Visceral Uprooting
*Album: 50​.​39​-​square​-​kilometer Mass Grave
*Year: 2021
*Genre: Brutal Death Metal
*Country: France
*Format: mp3@CBR320kbps
*Size: 58MB

Tracklist:
1. Human Manure
2. Ulcerated Trunk
3. Dragging Limbs
4. Raped by Flying Whales (Gojirape)
5. Harvest of Distilled Organs
6. Obstructed Defecation
7. Regurgitation of Intestinal Fluids
8. U.F.O
******************************
Total playing time: 24:13

https://viletapesrecords.bandcamp.com/album/visceral-uprooting-5039-square-kilometer-mass-grave

Extended info
Line - up:
Anthony Guern - Vocals, Guitars, Bass, Drum programming (Cryogenical Excision, Dysmorfectomy, Ulsorasis, ex-Dawn of Might)

Guest/Session:
Félix - Unknown (track 8) (Cryogenical Excision, Inseminate Degeneracy, ex-Dawn of Might, ex-AntiCorpse)



Technical info

Input File: 5. Harvest Of Distilled Organs.mp3
Channels : 2
Sample Rate : 44100
Precision : 16-bit
Duration : 00:02:54.07 = 7676311 samples = 13055 CDDA sectors
File Size : 6.97M
Bit Rate : 320k
Sample Encoding: MPEG audio (layer I, II or III)
Comments :
Title=Harvest Of Distilled Organs
Artist=Visceral Uprooting
Album=50​.​39​-​Square​-​Kilometer Mass Grave
Tracknumber=5
Year=2021
Genre=Brutal Death Metal



[ Hidden Text ]

Posted by: oathzine Feb 16 2021, 09:16:41

Flac

[ Hidden Text ]

Posted by: Victim of fate Apr 9 2021, 05:15:44

всё хорошо....прям капельку разнообразия бы....

Powered by Invision Power Board
© Invision Power Services