Printable Version of Topic

Click here to view this topic in its original format

Metal Area - Extreme Music Portal _ Archive _ Fuzzthrone - Temple Of The Fuzz (2021)

Posted by: vosmidesijatye Apr 11 2021, 12:02:14

http://metalarea.org/images/audiocovers/2021_Apr/acov_tid349536.jpg

*Artist: Fuzzthrone
*Album: Temple Of The Fuzz
*Year: 2021
*Genre: Stoner/Doom Metal
*Country: Russian Federation
*Format: mp3@CBR320kbps
*Size: 64MB

Tracklist:
1. Divine Touch (Intro) 03:07
2. Dead Guy's Town 02:54
3. The Undertaker 03:48
4. Дымный гость (Hazy Guest) 05:34
5. Нити (Knits) 04:40
6. Divine Touch (Album Version) 07:25
******************************
Total playing time: 27:28

https://fuzzthrone.bandcamp.com/album/temple-of-the-fuzz

Technical info

Input File: Fuzzthrone - Temple of the Fuzz - 04 Дымный гость (Hazy guest).mp3
Channels : 2
Sample Rate : 44100
Precision : 16-bit
Duration : 00:05:34.86 = 14767150 samples = 25114.2 CDDA sectors
File Size : 13.6M
Bit Rate : 324k
Sample Encoding: MPEG audio (layer I, II or III)
Comments :
Title=Дымный гость (Hazy guest)
Artist=Fuzzthrone
Album=Temple of the Fuzz
Tracknumber=4
Year=2021



[ Hidden Text ]

Powered by Invision Power Board
© Invision Power Services