Printable Version of Topic

Click here to view this topic in its original format

Metal Area - Extreme Music Portal _ Archive _ Endseeker - Mount Carcass (2021)

Posted by: Samaritianin Apr 15 2021, 10:17:55

http://metalarea.org/images/audiocovers/2021_Apr/acov_tid349664.jpg

*Artist: Endseeker
*Album: Mount Carcass
*Year: 2021
*Genre: Old School Death Metal
*Country: Germany
*Format: mp3@CBR320kbps
*Size: 83MB

Tracklist:
1. Unholy Rites 04:06
2. Merciless Tide 04:37
3. Bloodline 04:18
4. Mount Carcass 03:21
5. Count the Dead 04:40
6. Cult 04:08
7. Moribund 04:03
8. Frantic Redemption 03:28
9. Escape from New York (John Carpenter cover) 03:07 instrumental
******************************
Total playing time: 35:48

https://endseeker.bandcamp.com/album/mount-carcass
https://www.facebook.com/endseekermusic/

Extended info
Torsten Bass
Ben Guitars
Lenny Vocals
Andre Drums
Jury Guitars


Technical info

Input File: 05. Count the Dead.mp3
Channels : 2
Sample Rate : 44100
Precision : 16-bit
Duration : 00:00:00.28 = 12348 samples = 21 CDDA sectors
File Size : 11.5M
Bit Rate : 327M
Sample Encoding: MPEG audio (layer I, II or III)
Comments :
Title=Count the Dead
Artist=Endseeker
Album=Mount Carcass
Tracknumber=05
Year=2021



[ Hidden Text ]

Posted by: Samaritianin Apr 15 2021, 22:36:17

FLAC (Tracks) 267 mb
[ Hidden Text ]

Posted by: defamer666 Apr 15 2021, 23:09:33


Как всегда рвут в клочья - КРАСАВЦЫ!!! metaler.gif metaler.gif metaler.gif

P.S Саунд ЖИРРРРРРРРНЕЙШИЙ нарулили - шведоОЛДскульные гитарки прямо ЗАВЫВАЮТ ввысь на ЛУНУ!!! dwarf-1.gif dwarf-1.gif dwarf-1.gif

Posted by: RUSP73 Apr 17 2021, 14:47:33

Неплохая 100500 версия шведодэта. Слушать и тем более оставлять нет желания

Posted by: deathic Dec 20 2021, 00:57:04

Please, re upload.

Posted by: kefka Dec 20 2021, 06:40:20

QUOTE(deathic @ Dec 20 2021, 00:57:04) *
Please, re upload.

Mediafire link by Samaritianin is still working

Powered by Invision Power Board
© Invision Power Services