Printable Version of Topic

Click here to view this topic in its original format

Metal Area - Extreme Music Portal _ Archive _ Svartheim - Black Metal Finland (2021)

Posted by: Cramloth May 12 2021, 02:34:03

https://metalarea.org/images/audiocovers/2021_May/acov_tid350772.jpg

*Artist: Svartheim
*Album: Black Metal Finland
*Year: 2021
*Genre: Black Metal
*Country: Finland
*Format: mp3@CBR320kbps
*Size: 131MB

Tracklist:
1. Pimeyttä vasten 07:19​
2. Marras 07:16​
3. Kärsimysten airut 08:58​
4. Vaiettu 06:12
5. Sydäntä kylmää 09:32
6. Syvästä vihasta 05:51
7. Viimeiseen talveen 11:59
******************************
Total playing time: 57:07

https://www.youtube.com/watch?v=seGmt_9wY44
https://svartheim.bandcamp.com

Technical info

Input File: Svartheim - Pimeyttä Vasten.mp3
Channels : 2
Sample Rate : 48000
Precision : 16-bit
Duration : 00:07:19.30 = 21086544 samples ~ 32947.7 CDDA sectors
File Size : 17.6M
Bit Rate : 320k
Sample Encoding: MPEG audio (layer I, II or III)
Comments :
Title=Pimeyttä Vasten
Artist=Svartheim
Album=Black Metal Finland
Tracknumber=1
Year=2021
Genre=Black Metal



[ Hidden Text ]

Posted by: Maximvs May 12 2021, 13:07:11

Длинные композиции в "старом" ключе неплохо зашли.

Posted by: craP_cillA May 12 2021, 15:33:01

PLEASE! learn to tag/number the filenames correctly (1,2,3...) it's super annoying to have to rename everything by myself. 21.gif

Posted by: Sangreal May 12 2021, 17:51:22

Приятный монотонно-неторопливый стафф меланхолического характера.
Есть очень недурные моменты, но в целом - на раз-другой послушать.

Posted by: yarrsuaa May 12 2021, 19:22:17

Качаю уже только из-за названия и обложки! 25.gif

Posted by: recber May 12 2021, 19:56:01

А шо это ваще за парни новенькие или солянка из финского черного кола 25.gif ?

Posted by: Kvlt May 12 2021, 20:53:49

QUOTE(craP_cillA @ May 12 2021, 16:33:01) *
PLEASE! learn to tag/number the filenames correctly (1,2,3...) it's super annoying to have to rename everything by myself. 21.gif


So good to see that i'm not the only one, who can't ignore that.

Posted by: MAPhilosopher May 12 2021, 21:35:10

QUOTE(Kvlt @ May 12 2021, 21:53:49) *
So good to see that i'm not the only one, who can't ignore that.

Иди плачь в другом месте.

Posted by: Cramloth May 12 2021, 22:31:34

QUOTE(craP_cillA @ May 12 2021, 15:33:01) *
PLEASE! learn to tag/number the filenames correctly (1,2,3...) it's super annoying to have to rename everything by myself. 21.gif

You could have messaged if it was getting on your nerves thou 1488.gifsmile1.gif
But I'll try to not forget that

Posted by: craP_cillA May 13 2021, 00:18:17

that's right! smile3.gif

but anyway: thank you! smile1.gif

Posted by: tenebriis Oct 4 2021, 15:19:54

Nice kind of melancholic Finland.

Powered by Invision Power Board
© Invision Power Services