Printable Version of Topic

Click here to view this topic in its original format

Metal Area - Extreme Music Portal _ Archive _ Project: Roenwolfe - Edge Of Saturn (2021)

Posted by: wolfskaiser May 13 2021, 12:02:02

http://metalarea.org/images/audiocovers/2021_May/acov_tid350815.jpg

*Artist: Project: Roenwolfe
*Album: Edge Of Saturn
*Year: 2021
*Genre: Power/Thrash Metal
*Country: United States
*Format: mp3@CBR320kbps
*Size: 112MB

Tracklist:
01. Song Of Kali
02. Something More
03. Promethium
04. Edge Of Saturn
05. Mastermind Manipulators
06. Starbound Butcher Of My Dreams
07. Of Mice And Straw Men
08. Aeternum Vale
******************************
Total playing time: 45:50

https://projectroenwolfe.bandcamp.com/album/edge-of-saturn

Technical info

Input File: 02. Something More.mp3
Channels : 2
Sample Rate : 44100
Precision : 16-bit
Duration : 00:04:28.30 = 11831810 samples = 20122.1 CDDA sectors
File Size : 10.8M
Bit Rate : 322k
Sample Encoding: MPEG audio (layer I, II or III)
Comments :
Title=Something More
Artist=Project Roenwolfe
Album=Edge of Saturn
Tracknumber=2
Year=2021-05-14
Genre=Alternative / Indie Rock / Metal
Discnumber=1



[ Hidden Text ]

Powered by Invision Power Board
© Invision Power Services