Printable Version of Topic

Click here to view this topic in its original format

Metal Area - Extreme Music Portal _ Archive _ Windischer - Gottscheer (2018)

Posted by: NachtWulf Jul 25 2021, 15:15:15

http://metalarea.org/images/audiocovers/2021_Jul/acov_tid353753.jpg

*Artist: Windischer
*Album: Gottscheer
*Year: 2018
*Genre: Black Metal
*Country: Slovenia
*Format: mp3@CBR320kbps
*Size: 74MB

Tracklist:
01. Vra Shünna
02. Pain Roashnprünn
03. Oin Höimöt
04. Da Meerarin
05. Marlschtoin
06. Linden Burns (BMAC)
******************************
Total playing time: 32:12

https://darkekarmaduplicateur.bandcamp.com/album/gottscheer

Technical info

Input File: 04. Da Meerarin.mp3
Channels : 2
Sample Rate : 44100
Precision : 16-bit
Duration : 00:00:00.26 = 11466 samples = 19.5 CDDA sectors
File Size : 10.5M
Bit Rate : 324M
Sample Encoding: MPEG audio (layer I, II or III)
Comments :
Title=Da Meerarin
Artist=Windischer
Album=Gottscheer
Tracknumber=4
Year=2018-03-16
Genre=Metal
Discnumber=1



[ Hidden Text ]

Posted by: Vitald Aug 3 2021, 09:45:48

Дебют (этот альбом) не менее интересен, чем последующий '20 года (крайний). Не слишком сложная музыкальная конструкция как тут, так и там, но цепляет слух на всём протяжении альбома. Взял на заметку группу и оставил в коллекции два альбома.

Powered by Invision Power Board
© Invision Power Services