Printable Version of Topic

Click here to view this topic in its original format

Metal Area - Extreme Music Portal _ Archive _ Swallow The Sun - 20 Years Of Gloom, Beauty And Despair: Live In Helsinki [live] (2021)

Posted by: Necrokilldozer Jul 30 2021, 08:46:44

http://metalarea.org/images/audiocovers/2021_Jul/acov_tid353871.jpg

*Artist: http://metalarea.org/forum/index.php?showtopic=12727
*Album: 20 Years Of Gloom, Beauty And Despair: Live In Helsinki [live]
*Year: 2021
*Genre: Melodic Doom/Death Metal
*Country: Finland
*Format: mp3@CBR320kbps
*Size: 279MB

Tracklist:
Disc 1:
1. The Womb of Winter
2. The Heart of a Cold White Land
3. Away
4. Pray for the Winds to Come
5. Songs from the North
6. 66°50'N, 28°40'E
7. Autumn Fire
8. Before the Summer Dies

Disc 2:
9. Lost and Catatonic
10. Empires of Loneliness
11. Falling World
12. Cathedral Walls
13. Plague of Butterflies
14. Don't Fall Asleep (Horror Pt. II)
15. Stone Wings
16. The Giant
17. Swallow (Horror Pt. I)
18. Here on the Black Earth
******************************
Total playing time: 1:58:30

https://music.apple.com/us/album/20-years-of-gloom-beauty-and-despair-live-in-helsinki/1567278518

Extended info
Recorded live on February 26th, 2020 at Tavastia Club, Helsinki on their 20th anniversary tour. The first eight tracks are an acoustic set featuring the entire second disc of the Songs from the North album. The other songs were selected via a fan poll on social media asking for their favourite tracks from the remaining albums in their catalogue.


Technical info

Input File: 04. Cathedral Walls.mp3
Channels : 2
Sample Rate : 44100
Precision : 16-bit
Duration : 00:07:22.70 = 19522982 samples = 33202.4 CDDA sectors
File Size : 17.7M
Bit Rate : 320k
Sample Encoding: MPEG audio (layer I, II or III)
Comments :
Title=Cathedral Walls
Artist=Swallow The Sun
Album=20 Years of Gloom, Beauty and Despair - Live in Helsinki (Live)
Tracknumber=4
Year=2021
Genre=Melodic Doom/Death Metal
Discnumber=2



[ Hidden Text ]

Posted by: 3062 Jul 30 2021, 20:23:51

Отличный релиз!!!
Ждем видео

Posted by: 6666666 Jul 30 2021, 20:25:20

Очень много мусора с дух последних релизов.

Posted by: GRAF Jul 30 2021, 21:18:25

После предыдущего убожества, уже и не ждал от этого, гениального в прошлом, коллектива чего-то особенного, но вот это вот - вообще халтура. Нет нового материала? Нет идей? Новых запоминающихся красивых мелодий тоже нет? Так может пора достойно уйти, победителями? RIP.

Posted by: 3062 Jul 31 2021, 03:53:33

ЦИТАТА(GRAF @ Jul 30 2021, 23:18:25) *
После предыдущего убожества, уже и не ждал от этого, гениального в прошлом, коллектива чего-то особенного, но вот это вот - вообще халтура. Нет нового материала? Нет идей? Новых запоминающихся красивых мелодий тоже нет? Так может пора достойно уйти, победителями? RIP.

вы совсем уехали на почве ковида? это концертник юбилейный)) первый диск они спецом сыграли 2 часть песен севера а 2 диск бест составленный фанами. Вы хоть иногда читайте интервью музыкантов.

Posted by: Old Vyaine Jul 31 2021, 10:50:15

QUOTE(3062 @ 31st July 2021 - 05:53:33) *
вы совсем уехали на почве ковида?


Он в принципе уехавший, ковид вряд ли мог повлиять.

QUOTE(6666666 @ 30th July 2021 - 22:25:20) *
с дух последних релизов


С дух, ага. В таком контексте можно согласиться.

Posted by: 6666666 Jul 31 2021, 12:08:35

ЦИТАТА(Old Vyaine @ 31st July 2021 - 12:50:15) *
С дух, ага.

Я 2015-й записал, как один релиз, несмотря на три диска.

Posted by: 6666666 Jul 31 2021, 18:42:06

ЦИТАТА(metamfer @ 31st July 2021 - 19:37:29) *
Последний нормальный 2012 . Да.

Нет.

Posted by: Old Vyaine Aug 1 2021, 04:25:06

QUOTE(6666666 @ 31st July 2021 - 20:42:06) *
Нет.


Разумеется, потому что 2015 не нормальный, а роскошный.

Posted by: 3062 Aug 1 2021, 08:26:27

ЦИТАТА(Old Vyaine @ Aug 1 2021, 06:25:06) *
Разумеется, потому что 2015 не нормальный, а роскошный.

согласен 2015 шикарен это просто кладезь образов pray.gif

Posted by: 6666666 Aug 1 2021, 09:40:53

ЦИТАТА(Old Vyaine @ 1st August 2021 - 06:25:06) *
потому что 2015 не нормальный, а роскошный.

ЦИТАТА(6666666 @ 31st July 2021 - 20:42:06) *
Нет.


Posted by: 6666666 Aug 1 2021, 23:27:34

Ну а теперь по делу: несмотря на говёный сет-лист, этот концертник реально хороший. Тем более на фоне полукустарщины от Paradise Lost.

Posted by: Chasm Nov 15 2021, 12:34:41

Обалденный лайв, который я, хоть и не поклонник лайвов, оставлю, пожалуй.

Powered by Invision Power Board
© Invision Power Services