Printable Version of Topic

Click here to view this topic in its original format

Metal Area - Extreme Music Portal _ Archive _ Månen Skygge - Drowning In Silent Echoes (2021)

Posted by: NachtWulf Sep 13 2021, 13:21:04

http://metalarea.org/images/audiocovers/2021_Sep/acov_tid355449.jpg

*Artist: Månen Skygge
*Album: Drowning In Silent Echoes
*Year: 2021
*Genre: Atmospheric/Depressive Black Metal
*Country: Australia
*Format: mp3@CBR320kbps
*Size: 87MB

Tracklist:
01. Spiral to Severance
02. The Dark Room
03. Drowning in Silent Echoes
04. And Forever the Worms Will Feed
******************************
Total playing time: 37:50

https://manenskygge.bandcamp.com

Technical info

Input File: 01 - Spiral to Severance.mp3
Channels : 2
Sample Rate : 44100
Precision : 16-bit
Duration : 00:00:00.56 = 24784 samples = 42.1497 CDDA sectors
File Size : 22.7M
Bit Rate : 324M
Sample Encoding: MPEG audio (layer I, II or III)
Comments :
Title=Spiral to Severance
Artist=Månen Skygge
Album=Drowning in Silent Echoes
Tracknumber=1/4
Year=2021
Genre=Atmospheric/Depressive Black Metal



[ Hidden Text ]

Posted by: witchfinder Sep 14 2021, 16:40:17

...The Empire FLACs Back...

[ Hidden Text ]

Posted by: Mencae77 Sep 15 2021, 13:25:26

QUOTE
...The Empire FLACs Back...

lol Dude, you're funny, thanks for the flacs!

Powered by Invision Power Board
© Invision Power Services