Printable Version of Topic

Click here to view this topic in its original format

Metal Area - Extreme Music Portal _ Archive _ Wolftopia - Ways Of The Pack (2021)

Posted by: necroscum Dec 16 2021, 13:09:22

https://metalarea.org/images/audiocovers/2021_Dec/acov_tid359594.jpg

*Artist: Wolftopia
*Album: Ways Of The Pack
*Year: 2021
*Genre: Melodic Death Metal
*Country: Finland
*Format: mp3@CBR320kbps
*Size: 90MB

Tracklist:
01. Hound of War 05:23
02. The Last Embrace of the Mother 04:45
03. Wash the Spears 04:58
04. We Are Pack 04:58
05. Predator 04:27
06. May He Sever the Shadow 04:54
07. The Alpha 04:08
08. I Am the Storm 05:26
******************************
Total playing time: 38:59

https://www.facebook.com/wolftopiaband/
https://www.instagram.com/wolftopiaband/
https://wolftopia.bandcamp.com/album/ways-of-the-pack
https://www.youtube.com/watch?v=Cf-nKktPn-E

Technical info

Input File: 02 - The Last Embrace of the Mother.mp3
Channels : 2
Sample Rate : 44100
Precision : 16-bit
Duration : 00:04:46.00 = 12612600 samples = 21450 CDDA sectors
File Size : 11.6M
Bit Rate : 324k
Sample Encoding: MPEG audio (layer I, II or III)
Comments :
Title=The Last Embrace of the Mother
Artist=Wolftopia
Album=Ways of the Pack
Tracknumber=2
Year=2021-12-17
Discnumber=1



[ Hidden Text ]

Posted by: Andrew Dec 16 2021, 14:26:26

[quote name='necroscum' date='Dec 16 2021, 16:09:22' post='2636509']
*Genre: Melodic Death Metal
/quote]
Children Of Bodom style.
Скорее всего, это хеви с харшевым вокалом.

Posted by: sadmannn Dec 16 2021, 18:59:21

Присоединяюсь
Нормальный такой heavy с харш-войсом
Ну, пускай будет мелодет, не суть
Под настроение приятно послушать

Posted by: Storky Dec 22 2021, 07:16:37

Первые 4 песни хороши, на 9/10, потом идут более обыденные и к концу альбом начинает даже за#обывать.
По стилю как более мягкий и сочный Калмах

Posted by: Aectan Dec 22 2021, 20:04:36

Приятная вещь, да.

Posted by: dm666 Jan 1 2022, 15:56:32

Lossless: FLAC (tracks)
[ Hidden Text ]

Posted by: zauber1 Jan 16 2022, 19:09:21

В превью унылый среднетемповый недомелодет. smile2.gif

Posted by: DenisKov Jan 25 2022, 16:20:49

Неплохой третьесорт, пару раз послушать норм.
PS Что рили?! в 2022 обсуждать фмдм это отдельная ветка или хэви с харш вокалом? "Спустя столько лет? Всегда!" 1488.gif

Powered by Invision Power Board
© Invision Power Services