Printable Version of Topic

Click here to view this topic in its original format

Metal Area - Extreme Music Portal _ Archive _ Dark Millennium - Acid River (2022)

Posted by: necroscum Jan 6 2022, 12:10:05

https://metalarea.org/images/audiocovers/2022_Jan/acov_tid360196.jpg

*Artist: https://metalarea.org/forum/index.php?showtopic=128736
*Album: Acid River
*Year: 2022
*Genre: Progressive/Death/Doom Metal
*Country: Germany
*Format: mp3@CBR320kbps
*Size: 114MB

Tracklist:
01. The Verger 07:01
02. Godforgotten 07:02
03. Threshold 07:02
04. Lunacy 07:01
05. Essence 07:07
06. Vessel 07:02
07. Death Comes In Waves 07:00
******************************
Total playing time: 49:15

https://www.facebook.com/DarkMillenniumOfficial
https://www.instagram.com/darkmillennium/
https://www.reverbnation.com/darkmillennium3
https://soundcloud.com/dark-millennium
https://www.youtube.com/watch?v=U6iseRuk_a8

Technical info

Input File: 02. Godforgotten.mp3
Channels : 2
Sample Rate : 44100
Precision : 16-bit
Duration : 00:07:02.00 = 18610200 samples = 31650 CDDA sectors
File Size : 17.1M
Bit Rate : 324k
Sample Encoding: MPEG audio (layer I, II or III)
Comments :
Title=Godforgotten
Artist=Dark Millennium
Album=Acid River
Tracknumber=2
Year=2022
Discnumber=1



[ Hidden Text ]
[ Hidden Text ]

Posted by: AHBAnep Jan 7 2022, 17:34:27

[ Hidden Text ]

Posted by: mirotvorets Jan 8 2022, 13:08:35

Странная группа Dark Millennium записала новый альбом. Одна из немногих, которая сопровождала меня всю жизнь. Любой их альбом могу включить и слушать. Причудливость и спонтанность с годами у них стали приобретать некую сфокусированную направленность. Внезапность выплывающей нотной структуры становится подвластной некоторой определенной им понятной нумерологии. Всё что изменилось, это - сценарии  развития, по прежнему сюрреалистичные - приобрели более утонченные формы, углами и сторонами всё так же простираясь из мест, из которых проистекает подобная необычная река.
Странная группа Dark Millennium записала новый альбом. С обложкой, на которой разноцветный колодец отражается на изумрудной поверхности. Как это возможно?

Posted by: Shadowman Jan 14 2022, 14:41:24

Мне ДМ после воссоединения нравится определенно больше. И новый альбом тоже хорош: все и в самом деле очень оригинально, слегка психоделично, а местами очень душевно. 7/10 (с учетом нумерологической специфики альбома)

Posted by: 6666666 Jan 14 2022, 15:10:24

Была же такая тема.

Posted by: wolfskaiser Jan 14 2022, 16:27:10

ЦИТАТА(6666666 @ Jan 14 2022, 16:10:24) *
Была же такая тема.

справедливость восторжествовала

Posted by: 6666666 Jan 14 2022, 19:33:40

ЦИТАТА(wolfskaiser @ 14th January 2022 - 18:27:10) *
справедливость восторжествовала

В чём?

Posted by: wolfskaiser Jan 14 2022, 21:20:12

ЦИТАТА(6666666 @ Jan 14 2022, 20:33:40) *
В чём?

в том что оставили тему того кто первый добавил альбом, а повтор удалили.

Posted by: 6666666 Jan 14 2022, 22:21:51

ЦИТАТА(wolfskaiser @ 14th January 2022 - 23:20:12) *
первый добавил альбом

Паганхарт же.

Powered by Invision Power Board
© Invision Power Services