Printable Version of Topic

Click here to view this topic in its original format

Metal Area - Extreme Music Portal _ Archive _ Spontaneous Combustion - Auto Inmolacion (2022)

Posted by: wolfskaiser Feb 4 2022, 14:06:26

http://metalarea.org/images/audiocovers/2022_Feb/acov_tid361243.jpg

*Artist: Spontaneous Combustion
*Album: Auto Inmolacion
*Year: 2022
*Genre: Slamming Brutal Death Metal
*Country: Argentina
*Format: mp3@CBR320kbps
*Size: 76MB

Tracklist:
01. Decapitando
02. Encuentro Forzoso
03. Cadaver Maltratado
04. Segrega Trombos
05. Oscuro Enfrentamiento
06. Exonerado
07. Ignicion
08. Dogma
09. Biseccion Presurosa
10. Sangra
******************************
Total playing time: 31:10

https://www.facebook.com/spontaneouscombustionslamming

Technical info

Input File: 02. Encuentro Forzoso.mp3
Channels : 2
Sample Rate : 44100
Precision : 16-bit
Duration : 00:02:38.50 = 6989674 samples = 11887.2 CDDA sectors
File Size : 6.38M
Bit Rate : 322k
Sample Encoding: MPEG audio (layer I, II or III)
Comments :
Title=Encuentro Forzoso
Artist=Spontaneous Combustion
Album=Auto Inmolacion
Tracknumber=02/10
Year=2022



[ Hidden Text ]

Posted by: oathzine Feb 5 2022, 10:30:52

Flac

[ Hidden Text ]

Posted by: beast666 Feb 6 2022, 14:42:09

https://www.youtube.com/watch?v=hA465GIRWdo

Powered by Invision Power Board
© Invision Power Services