Printable Version of Topic

Click here to view this topic in its original format

Metal Area - Extreme Music Portal _ Archive _ Devoured Elysium - Void Grave (2022)

Posted by: necroscum Feb 17 2022, 12:25:40

https://metalarea.org/images/audiocovers/2022_Feb/acov_tid361605.jpg

*Artist: Devoured Elysium
*Album: Void Grave
*Year: 2022
*Genre: Brutal Death Metal
*Country: Turkey
*Format: mp3@CBR320kbps
*Size: 63MB

Tracklist:
1. Setup 01:09
2. Void Grave 02:51
3. Mastermind 03:36
4. Green Screen Failure 03:07
5. Deus Ex Machina 04:12
6. Slam Panzer 03:23
7. Spinerender 01:11
8. Oracle 03:28
9. Chrono-Shift 03:31
******************************
Total playing time: 26:28

https://www.facebook.com/DevouredElysiumofficial
https://www.instagram.com/devouredelysium/

Technical info

Input File: 02 - Void Grave.mp3
Channels : 2
Sample Rate : 44100
Precision : 16-bit
Duration : 00:02:50.00 = 7497000 samples = 12750 CDDA sectors
File Size : 7.03M
Bit Rate : 331k
Sample Encoding: MPEG audio (layer I, II or III)
Comments :
Title=Void Grave
Artist=Devoured Elysium
Album=Void Grave
Tracknumber=2
Year=2022-02-18
Genre=Metal
Discnumber=1



[ Hidden Text ]

Posted by: beast666 Feb 17 2022, 13:51:50

https://gorehouseproductions.bandcamp.com/album/void-grave

Powered by Invision Power Board
© Invision Power Services