Printable Version of Topic

Click here to view this topic in its original format

Metal Area - Extreme Music Portal _ Archive _ Yezdin - Modra Veda (2022)

Posted by: Samaritianin Jul 19 2022, 12:14:33

https://metalarea.org/images/audiocovers/2022_Jul/acov_tid367368.jpg

*Artist: Yezdin
*Album: Modra Veda
*Year: 2022
*Genre: Psychedelic Black/Folk Metal
*Country: Slovenia
*Format: mp3@CBR320kbps
*Size: 82MB

Tracklist:
1. At the Pearly Gates of Morning Glory 01:56
2. Riffael 04:19
3. Antične bitke 04:21
4. Drugi padec Rima 03:26
5. Mati sreče (Brugmansia) 03:42
6. Protokol Antahkarana 03:48
7. Stingray chariot 03:09
8. Zlati učitelj 04:52
9. Knez sonca 04:58
10. Nova stran 01:32
******************************
Total playing time: 36:03

https://yezdin.bandcamp.com/album/modra-veda
https://www.facebook.com/YezdinOfficial/

Technical info

Input File: 08 - Zlati Učitelj.mp3
Channels : 2
Sample Rate : 44100
Precision : 16-bit
Duration : 00:04:53.00 = 12921432 samples = 21975.2 CDDA sectors
File Size : 11.7M
Bit Rate : 320k
Sample Encoding: MPEG audio (layer I, II or III)
Comments :
Title=Zlati Učitelj
Artist=Yezdin
Album=Modra Veda
Tracknumber=8
Year=2022
Genre=Metal



[ Hidden Text ]

Posted by: Mencae77 Jul 19 2022, 16:34:25

The cover and logo looks like an old school videogame rpg alkash.gif

Posted by: kimkayoung Jul 20 2022, 18:28:36

QUOTE(Mencae77 @ Jul 19 2022, 18:34:25) *
The cover and logo looks like an old school videogame rpg alkash.gif


Agreed!

One of their tags is "megaman metal." My search for "megaman (Mega Man)" points to a Japanese video game.

Also, their music sounds so (at least to these ears... a bit like a chiptune...).


Posted by: judaz Jul 21 2022, 06:09:51

Ну, как минимум необычно. Разок точно стоит ознакомиться.

ЦИТАТА(kimkayoung @ Jul 20 2022, 18:28:36) *
Also, their music sounds so (at least to these ears... a bit like a chiptune...).

Есть что-то такое. Дисторшированный и металлизированный chiptune.

Posted by: mittal Jul 21 2022, 12:39:21

ЦИТАТА(judaz @ 21st July 2022 - 08:09:51) *
Есть что-то такое. Дисторшированный и металлизированный chiptune.

Вроде и норм звучит, но когда слышишь блэковый вокал, то тут же пропадает желание слушать.

Posted by: Vitald Jul 22 2022, 07:05:32

Блэкховая составляющая здесь не очень-то и многообразна, если бы не связка с фолком . Этакий плясовой блэк - скрепа данной конструкции. Хотелось бы конечно пожёстче чернуху услышать вместо говнеца с пластмассовым звучанием, наваленного в промежутках и на "подтанцовках".
Стафф не в копилку, но погонять пару раз можно.

Powered by Invision Power Board
© Invision Power Services