Printable Version of Topic

Click here to view this topic in its original format

Metal Area - Extreme Music Portal _ Archive _ Wolven - War Poisoned Cult (2022)

Posted by: Necrokilldozer Aug 1 2022, 16:34:58

http://metalarea.org/images/audiocovers/2022_Aug/acov_tid367838.jpg

*Artist: Wolven
*Album: War Poisoned Cult
*Year: 2022
*Genre: Grindcore/Crust Punk
*Country: Belgium
*Format: mp3@CBR320kbps
*Size: 77MB

Tracklist:
1. Immersed in Blood 03:27
2. Revolution Guillotine 04:20
3. Death Bringer 03:32
4. Division Kalashnikov 04:45
5. Toxic Red Poison 03:28
6. The Doomsday Machine 04:36
7. Blood for People 03:27
8. Raise the Horns of Chaos 04:05
******************************
Total playing time: 31:40

https://esagoya.bandcamp.com/album/war-poisoned-cult

Extended info
Wolven's 3rd full album, entitled "War Poisoned Cult" presents you 8 highly intense and aggressive tracks as an antidote against today's state of the world.

Shitheads who want war for the sake of the military.
Idiot politicians who twist the law to take advantage of the chaos.
Shattering the faces of those cults.


Technical info

Input File: 01. Immersed in Hate.mp3
Channels : 2
Sample Rate : 44100
Precision : 16-bit
Duration : 00:03:28.05 = 9175137 samples = 15604 CDDA sectors
File Size : 8.33M
Bit Rate : 320k
Sample Encoding: MPEG audio (layer I, II or III)
Comments :
Title=Immersed in Hate
Artist=Wolven
Album=War Poisoned Cult
Tracknumber=1
Year=2022
Genre=Grindcore | Crust Punk



[ Hidden Text ]

Posted by: Vitald Aug 5 2022, 05:14:44

Задорные посаны.

Posted by: deathic Oct 2 2022, 22:37:52

Please, re-upload.

Posted by: Ingvar Oct 3 2022, 08:01:16

75 mb/320 kbps
[ Hidden Text ]

Powered by Invision Power Board
© Invision Power Services