Printable Version of Topic

Click here to view this topic in its original format

Metal Area - Extreme Music Portal _ Archive _ Decasion - Instilling The Decayed Obsession (2022)

Posted by: kefka Aug 6 2022, 05:35:44

https://metalarea.org/images/audiocovers/2022_Aug/acov_tid368005.jpg

*Artist: Decasion
*Album: Instilling The Decayed Obsession
*Year: 2022
*Genre: Death Metal/Hardcore
*Country: Japan
*Format: mp3@CBR320kbps
*Size: 65MB

Tracklist:
01.Wicked Monarchism 03:08
02.Eternal Fears 02:10
03.Blasphemy 03:13
04.Playing the Victim 03:16
05.Laugh at Your Death 02:48
06.Redrum 03:01
07.Madretsma 02:31
08.Common Suffering 02:30
09.Hellish Sight 03:45
10.The Chainsaw Man 02:51
******************************
Total playing time: 29:13

https://www.youtube.com/watch?v=ik4LsIF2ENo

Technical info

Input File: 02 - Eternal Fears.mp3
Channels : 2
Sample Rate : 44100
Precision : 16-bit
Duration : 00:02:10.78 = 5767354 samples = 9808.43 CDDA sectors
File Size : 5.63M
Bit Rate : 345k
Sample Encoding: MPEG audio (layer I, II or III)
Comments :
Title=Eternal Fears
Artist=Decasion
Album=Instilling the Decayed Obsession
Tracknumber=02
Year=2022
Genre=Death Metal/Hardcore



[ Hidden Text ]

Powered by Invision Power Board
© Invision Power Services