Printable Version of Topic

Click here to view this topic in its original format

Metal Area - Extreme Music Portal _ Archive _ Silenced Within - Silenced Within (2022)

Posted by: necroscum Aug 25 2022, 14:33:33

https://metalarea.org/images/audiocovers/2022_Aug/acov_tid368629.jpg

*Artist: Silenced Within
*Album: Silenced Within
*Year: 2022
*Genre: Gothic Metal
*Country: United States
*Format: mp3@CBR320kbps
*Size: 104MB

Tracklist:
01. Bittersweet 03:16
02. Puppet 03:15
03. Charade 03:12
04. Falling Away From Me 04:21
05. Hereafter 03:21
06. Ghost 03:05
07. Break the Bough 02:52
08. Say It 02:54
09. Magic 04:44
10. Time to Rise 04:07
11. Destiny 03:21
12. Lullaby 03:58
13. Nightmare 02:57
******************************
Total playing time: 45:23

https://www.facebook.com/Silenced-Within-104814611320760/

Technical info

Input File: 02 - Puppet.mp3
Channels : 2
Sample Rate : 44100
Precision : 16-bit
Duration : 00:03:15.00 = 8599500 samples = 14625 CDDA sectors
File Size : 7.88M
Bit Rate : 323k
Sample Encoding: MPEG audio (layer I, II or III)
Comments :
Title=Puppet
Artist=Silenced Within
Album=Silenced Within
Tracknumber=2
Year=2022
Discnumber=1



[ Hidden Text ]

Posted by: AHBAnep Aug 27 2022, 01:19:54


Powered by Invision Power Board
© Invision Power Services