Printable Version of Topic

Click here to view this topic in its original format

Metal Area - Extreme Music Portal _ Archive _ Tons - Hashension (2022)

Posted by: Necrokilldozer Oct 1 2022, 17:39:20

http://metalarea.org/images/audiocovers/2022_Oct/acov_tid370173.jpg

*Artist: Tons
*Album: Hashension
*Year: 2022
*Genre: Sludge/Doom Metal
*Country: Italy
*Format: mp3@CBR320kbps
*Size: 94MB

Tracklist:
1. Dope Dealer Scum
2. A Hash Day's Night
3. Slowly We Pot
4. Hempathy for the Devil
5. Ummagummo
6. Hashended (Outro)
******************************
Total playing time: 39:09

https://heavypsychsoundsrecords.bandcamp.com/album/tons-hashension

Extended info
Line - up:

Paolo - Bass, Vocals
Marco - Drums
Steuso - Guitars

After the infamous split album with the almighty Bongzilla, Tons are back with their third full-length studio album.
Hashension is composed by 6 heavy reefer songs which express the band’s devotion to the Green God. The recipe is the same, but always evolving: an infusion of slow and swampy doom/sludge metal with hints of psychedelia, and the band members’ hardcore-punk background gives the record a groovy and personal feel throughout.


Technical info

Input File: Tons - Hashension - 01 - Dope Dealer Scum.mp3
Channels : 2
Sample Rate : 48000
Precision : 16-bit
Duration : 00:06:54.31 = 19887120 samples ~ 31073.6 CDDA sectors
File Size : 16.6M
Bit Rate : 320k
Sample Encoding: MPEG audio (layer I, II or III)
Comments :
Title=Dope Dealer Scum
Artist=Tons
Album=Hashension
Tracknumber=1
Year=2022
Genre=Sludge | Doom Metal



[ Hidden Text ]

Posted by: vosmidesijatye Oct 6 2022, 11:31:56

Вкуснота-жирнота-лепота! Грязный, сырой сладж-стоунер дум в духе Bongzilla / Dopethrone. Мощный звук, лязгающие гитары, блюзоватые соло, сытные риффы и едко-глумливый хриплый вокал. добавляющий смака в это болотное варево.

Ничего нового, но реализовано просто замечательно. Это сладж-стоунер дум, каким он и должен быть. pray.gif

Posted by: metaljosue Oct 8 2022, 22:33:39

very very heavy!!!!! metaler.gif

Posted by: denver Oct 27 2022, 23:39:13

https://mixdrop.co/f/zpvk6d4paexj6m

Powered by Invision Power Board
© Invision Power Services