Printable Version of Topic

Click here to view this topic in its original format

Metal Area - Extreme Music Portal _ Archive _ Dramaturg - Darkness (2022)

Posted by: kefka Nov 19 2022, 09:03:25

https://metalarea.org/images/audiocovers/2022_Nov/acov_tid372602.jpg

*Artist: Dramaturg
*Album: Darkness
*Year: 2022
*Genre: Black Metal
*Country: Russian Federation
*Format: mp3@CBR320kbps
*Size: 94MB

Tracklist:
1.Swamp 06:04
2.You Can't Get Away from Yourself 05:53
3.One on One 05:02
4.Werewolf 04:35
5.From Dusk to Dawn 03:55
6.Wolfhound 05:11
7.The World Is Mine 05:04
8.I'm a Legend 05:15
******************************
Total playing time: 40:59

https://darkeastproductions.bandcamp.com/album/dramaturg-darkness

Technical info

Input File: 05 From Dusk to Dawn.mp3
Channels : 2
Sample Rate : 44100
Precision : 16-bit
Duration : 00:03:55.72 = 10395208 samples = 17678.9 CDDA sectors
File Size : 9.53M
Bit Rate : 323k
Sample Encoding: MPEG audio (layer I, II or III)
Comments :
Title=From Dusk to Dawn
Artist=DramAturG
Album=DramAturG - Darkness
Tracknumber=5
Year=2022
Genre=Black Metal



[ Hidden Text ]

Posted by: Kitalter Nov 19 2022, 18:27:36

Земляки из Тулы. Надо заценить)

Posted by: Nobrain-Nopain Nov 19 2022, 18:28:26

Название впечатляет.

Posted by: Amadeus Nov 19 2022, 18:53:04

ЦИТАТА(Nobrain-Nopain @ Nov 19 2022, 20:28:26) *
Название впечатляет.


название прям в духе Натиска или Эпитафии. Только что шрифт не тот

Posted by: Arch Nov 20 2022, 12:08:16

Когда лирика исполняется на русском языке даже в таких экстремальных стилях, где она на 99% идёт фоновым сопровождением, это особых вопросов не взывает. Непонятно только, зачем названия песен писать на английском, если лирика русская. Логичней было бы, если б писали на обоих языках.

Posted by: MikkeFFF Nov 22 2022, 05:06:28

ЦИТАТА(Kitalter @ Nov 19 2022, 20:27:36) *
Земляки из Тулы. Надо заценить)

Ну, если земляки, тоже скачиваю, заценю...
Звук неплохой, а тексты ещё послушаем

Posted by: DarkSoulmetal Nov 25 2022, 15:05:57

01Топи. 02 От себя не уйти. 03 Один на один. 04 Оборотень. 05 От заката до рассвета. 06 Волкодав.

Posted by: DarkSoulmetal Nov 27 2022, 14:36:19

pray.gif бомба

Posted by: Victim of fate Jan 19 2023, 06:37:32

эти уж лучше Демонов гильотины )))

Powered by Invision Power Board
© Invision Power Services