Printable Version of Topic

Click here to view this topic in its original format

Metal Area - Extreme Music Portal _ Archive _ Corporain - Purge//Purity (2021)

Posted by: Yarri Nov 19 2022, 17:51:59

https://metalarea.org/images/audiocovers/2022_Nov/acov_tid372618.jpg

*Artist: Corporain
*Album: Purge//Purity
*Year: 2021
*Genre: Progressive Metal/Rock
*Country: Italy
*Format: mp3@CBR320kbps
*Size: 117MB

Tracklist:
01. Millenium 02:26
02. Inception 04:29
03. The Purge 04:42
04. Apocalypse 06:57
05. Hollow 06:52
06. Pitch Black 05:17
07. Never Forget 07:15
08. Rage 05:34
09. Whispering The Wind 07:12
******************************
Total playing time: 50:44

https://www.youtube.com/watch?v=nhx_7we6UDo
https://www.youtube.com/watch?v=kKRLyTLO3wc

Technical info

Input File: 01. Millenium.mp3
Channels : 2
Sample Rate : 44100
Precision : 16-bit
Duration : 00:02:26.17 = 6445921 samples = 10962.5 CDDA sectors
File Size : 5.85M
Bit Rate : 320k
Sample Encoding: MPEG audio (layer I, II or III)
Comments :
Title=Millenium
Artist=Corporain
Album=Purge//Purity
Tracknumber=1
Year=2021
Genre=Progressive Metal



[ Hidden Text ]

Posted by: KLOP Dec 1 2022, 11:50:33

Судя по клипам что то второсортное.

Powered by Invision Power Board
© Invision Power Services