Printable Version of Topic

Click here to view this topic in its original format

Metal Area - Extreme Music Portal _ Archive _ Sullen - Nodus Tollens - Act 1: Oblivion [ep] (2021)

Posted by: Yarri Nov 19 2022, 18:50:03

https://metalarea.org/images/audiocovers/2022_Nov/acov_tid372622.jpg

*Artist: Sullen
*Album: Nodus Tollens - Act 1: Oblivion [ep]
*Year: 2021
*Genre: Progressive Metal
*Country: Portugal
*Format: mp3@CBR320kbps
*Size: 77MB

Tracklist:
01. The Prodigal Son 04:28
02. Skylines 04:23
03. Soul Interrupted 01:46
04. Acheronta Movebo 05:33
05. Memento 04:24
06. Human 03:08
07. The After 02:31
08. Fail-Safe 06:53
******************************
Total playing time: 33:06

https://sullenpt.bandcamp.com/album/nodus-tollens-act-1-oblivion
https://www.youtube.com/watch?v=hseB2eMnXXE

Extended info
David Pais - Vocals
André Ribeiro - Guitar
Pedro Mendes - Guitar
Ricardo Pinto - Bass
Marcelo Aires - Drums & Keys


Technical info

Input File: 01. The Prodigal Son.mp3
Channels : 2
Sample Rate : 44100
Precision : 16-bit
Duration : 00:04:28.95 = 11860607 samples = 20171.1 CDDA sectors
File Size : 10.8M
Bit Rate : 320k
Sample Encoding: MPEG audio (layer I, II or III)
Comments :
Title=The Prodigal Son
Artist=Sullen
Album=Nodus Tollens - Act I: Oblivion
Tracknumber=1
Year=2021
Genre=Progressive Metal



[ Hidden Text ]

Posted by: KLOP Dec 1 2022, 12:16:11

Музыка хорошая, вокальные партии и сопровождающая их гитара - полный отстой. И опять челкастое нытье на одной ноте, совсем не совпадающее с основным мотивом. Из-за этого весь альбом превращается в одну сплошную вокальную тягомотину. Причем незапоминающуюся. Грубый вокал есть, музло достойное есть, но полимеры просраны.
Спасибо что не на португальском.

Powered by Invision Power Board
© Invision Power Services