Printable Version of Topic

Click here to view this topic in its original format

Metal Area - Extreme Music Portal _ Archive _ Whirlwind - 1714 (2022)

Posted by: kefka Nov 22 2022, 08:45:13

https://metalarea.org/images/audiocovers/2022_Nov/acov_tid372741.jpg

*Artist: Whirlwind
*Album: 1714
*Year: 2022
*Genre: Heavy Metal
*Country: Spain
*Format: mp3@CBR320kbps
*Size: 125MB

Tracklist:
01.1714 (Intro) 01:37
02.The Call 06:33
03.Under Siege 04:12
04.Rebels Arise! 03:45
05.Torture, Knife & Fire 04:38
06.Gallows Tithe 04:21
07.Cannons of Infuriation 05:44
08.The Bastard Duke 04:38
09.Immortal Heroes 05:27
10.Red September 04:51
11.Echoes of Time 05:19
******************************
Total playing time: 51:05

https://fighter-records.bandcamp.com/album/1714

Extended info
1st album by this spanish Heavy Metal band with a good dose of RUNNING WILD in their sound.


Technical info

Input File: 04 - Rebels Arise!.mp3
Channels : 2
Sample Rate : 44100
Precision : 16-bit
Duration : 00:03:45.00 = 9922500 samples = 16875 CDDA sectors
File Size : 9.36M
Bit Rate : 333k
Sample Encoding: MPEG audio (layer I, II or III)
Comments :
Title=Rebels Arise!
Artist=Whirlwind
Album=1714
Tracknumber=4
Year=2022-11-22
Genre=Rock
Discnumber=1



[ Hidden Text ]

Posted by: isvili Nov 24 2022, 19:03:47

Прям музыка родом из средины-конца 80-ых.

Posted by: Winterdark Nov 26 2022, 00:19:36

ЦИТАТА(isvili @ Nov 24 2022, 19:03:47) *
Прям музыка родом из средины-конца 80-ых.

Зато не на испанском fear.gif

Powered by Invision Power Board
© Invision Power Services