Printable Version of Topic

Click here to view this topic in its original format

Metal Area - Extreme Music Portal _ Archive _ Nözaakr - Sanguinem Nebula [demo] (2021)

Posted by: lestllk Jan 8 2023, 21:25:04

https://metalarea.org/images/audiocovers/2023_Jan/acov_tid374938.jpg

*Artist: Nözaakr
*Album: Sanguinem Nebula [demo]
*Year: 2021
*Genre: Raw Black Metal
*Country: France
*Format: mp3@CBR320kbps
*Size: 62MB

Tracklist:
1. At Ima Dehiscat 02:28
2. Oblivioni Tradatur Manes 05:41
3. Porta Inferni 03:08
4. Sanguinem Atramento 04:49
5. Reconciliaverit Per Flammas 04:25
6. Latrans Exsanguis Terreat 05:56
******************************
Total playing time: 26:27

https://www.youtube.com/watch?v=s0xpm7vpZeU

Extended info
Les Fleurs du Mal Productions
Narbentage Produktionen


Technical info

Input File: 1-05 Reconciliaverit Per Flammas.mp3
Channels : 2
Sample Rate : 44100
Precision : 16-bit
Duration : 00:04:25.89 = 11725837 samples = 19941.9 CDDA sectors
File Size : 11.6M
Bit Rate : 348k
Sample Encoding: MPEG audio (layer I, II or III)
Comments :
Title=Reconciliaverit Per Flammas
Artist=Nözaakr
Album=Sanguinem Nebula
Tracknumber=5
Year=2021
Genre=Black Metal
Discnumber=1/1



[ Hidden Text ]

Powered by Invision Power Board
© Invision Power Services