Printable Version of Topic

Click here to view this topic in its original format

Metal Area - Extreme Music Portal _ Archive _ Holy Moses - Invisible Queen [single] (2023)

Posted by: Andrew Feb 11 2023, 19:24:48

http://metalarea.org/images/audiocovers/2023_Feb/acov_tid376565.jpg

*Artist: http://metalarea.org/forum/index.php?showtopic=25607
*Album: Invisible Queen [single]
*Year: 2023
*Genre: Speed/Thrash Metal
*Country: Germany
*Format: mp3@CBR320kbps
*Size: 9MB

Tracklist:
1. Invisible Queen 03:55
******************************
Total playing time: 3:55

https://www.facebook.com/official.holy.moses
https://www.youtube.com/watch?v=fDKYxuO-kkk

Extended info
Sabina Classen Vocals (1981-1994, 2000-present)
See also: ex-Temple of the Absurd, ex-X-Mas Project
Thomas Neitsch Bass (2008-present)
See also: Desilence, Klonque, ex-Courageous, Veritas Maximus
Gerd Lücking Drums (2011-present)
See also: Bonded (live), Klonque (live), Giftdwarf, ex-Trampire, ex-Lightmare, Veritas Maximus, ex-Rebellion, ex-Melancholic Seasons (live), ex-Tankard (live), ex-Courageous, ex-Rawboned
Peter Geltat Guitars (2012-present)
See also: Desilence, Klonque, ex-Sinners Bleed


Technical info

Input File: Holy_Moses-Invisible_Queen.mp3
Channels : 2
Sample Rate : 44100
Precision : 16-bit
Duration : 00:03:55.61 = 10390577 samples = 17671 CDDA sectors
File Size : 9.55M
Bit Rate : 324k
Sample Encoding: MPEG audio (layer I, II or III)
Comments :
Title=Invisible Queen
Artist=Holy Moses
Album=Invisible Queen (Single)
Year=2023
Genre=144



[ Hidden Text ]

Posted by: FullofHate Feb 11 2023, 20:15:31

Выключил после 15 секунды.

Posted by: Samaritianin Feb 11 2023, 20:20:33

ЦИТАТА(FullofHate @ Feb 11 2023, 21:15:31) *
Выключил после 15 секунды.

Та да.зря они вот это все замутили..в утиль бабушку.

Posted by: Uncle_Vania Feb 11 2023, 20:39:46

даладно... Некромантия ж запрещена Роскомнадзором crazy.gif

Posted by: RUSP73 Feb 11 2023, 20:48:47

Видимо, баблишки у бабули закончились 25.gif
Вспомнилось - "Молодая была немолода" 1488.gif

Posted by: spbfucker Feb 11 2023, 20:50:29

Жалкая пародия на неповторимый оригинал

Posted by: vasilisk Feb 11 2023, 23:49:42

ЦИТАТА(Samaritianin @ Feb 11 2023, 21:20:33) *
Та да.зря они вот это все замутили..в утиль бабушку.

Так Сабина говорила , что это их последний альбом

Posted by: Samaritianin Feb 12 2023, 00:39:24

ЦИТАТА(vasilisk @ Feb 12 2023, 00:49:42) *
Так Сабина говорила , что это их последний альбом

это понятно.только кому он нужен такой?
потому и зря..

Posted by: Farfarello Feb 12 2023, 07:55:23

Ужас. Вокал у бабки просто дичь стал. Слушать это невозможно. Да и инструментальная часть максимально убога в этой песни. 22.gif

Posted by: JPV Feb 12 2023, 09:33:39

Очень понравилось. Сабина добавила хардкора, отчего саунд стал такой около-ню-метальный. Ну и молодец, не всё же с внуками и котами на даче окапываться.

Posted by: Tarelka Feb 12 2023, 10:07:53

К музыкальному полотну претензий нет, очень даже. Но вокал Сабины и этот ущербный припев 22.gif

Posted by: cancer1974 Feb 12 2023, 11:24:45

песня отвратительна

Posted by: mardak666 Feb 12 2023, 13:09:16

Сабинка там еще жжотЪ?

Posted by: Winner Feb 12 2023, 16:13:23

Вообще не понял этот трэк

Posted by: vasilisk Feb 13 2023, 16:54:29

ЦИТАТА(mardak666 @ Feb 12 2023, 14:09:16) *
Сабинка там еще жжотЪ?

Клип посмотри 1488.gif

Posted by: valegga Feb 13 2023, 17:06:45

согласен с предыдущими, редкостная дрянь. что музыка - кто в лес, кто по дрова, что вокал просто никудышный. вычёркиваю 22.gif

Posted by: Nattfodd Feb 14 2023, 15:28:47

когда ты на массе, а к тебе докопалась гопота:

ЦИТАТА(FullofHate @ Feb 11 2023, 22:15:31) *
Выключил после 15 секунды.


1488.gif

Posted by: Nattfodd Feb 14 2023, 15:53:53

Хороший сингл, не вижу поводов воротить носы. Вокал хорошо ложится на музыку, сама музыка очень даже достойно звучит.

Posted by: assonik Mar 19 2023, 13:14:54

от трэша ничего не осталось

Powered by Invision Power Board
© Invision Power Services