Printable Version of Topic

Click here to view this topic in its original format

Metal Area - Extreme Music Portal _ Archive _ Frostshock - Frostshock (2023)

Posted by: Samaritianin Feb 23 2023, 16:09:25

https://metalarea.org/images/audiocovers/2023_Feb/acov_tid377163.jpg

*Artist: Frostshock
*Album: Frostshock
*Year: 2023
*Genre: Thrash Metal
*Country: Germany
*Format: mp3@CBR320kbps
*Size: 114MB

Tracklist:
01. Ein Sturm Zieht Auf
02. The Serpent Inside
03. Morbus Influencer
04. Demolition Of Dignity
05. Bludgeoned
06. Begraben Im Eis
07. A Weapon Called Time
08. Frostshock
09. Worn Out
10. Angrist
11. Putrefaction Of The Soul
******************************
Total playing time: 49:41

https://www.facebook.com/frostshockofficial

Extended info


Technical info

Input File: 07 - A Weapon Called Time.mp3
Channels : 2
Sample Rate : 44100
Precision : 16-bit
Duration : 00:05:09.10 = 13631354 samples = 23182.6 CDDA sectors
File Size : 12.5M
Bit Rate : 323k
Sample Encoding: MPEG audio (layer I, II or III)
Comments :
Title=A Weapon Called Time
Artist=Frostshock
Album=Frostshock
Tracknumber=7/11
Year=2023



[ Hidden Text ]

Posted by: Genuine Thrashiac Feb 23 2023, 18:10:54

Хмм, а этого Frost♂COCK♂ ещё нету на metal-archives

Posted by: Andrew Feb 23 2023, 21:31:51

https://soundcloud.com/fabian-schieffers
Очень даже неплохо! metaler.gif


Posted by: Morda_Morda Feb 23 2023, 22:15:38

Какой же это трэш?

Мелодэт, он и есть мелодэт... адовый ор и тремоло бесконечные...

Posted by: Andrew Mar 19 2023, 19:43:07

https://frostshock.bandcamp.com/album/frostshock
Очень добротный альбус. А стилистика действительно мелодет. 20.gif

Posted by: скептик Jul 14 2023, 16:49:42

понравился альбом, энергичный, быстрый, в меру агрессивный. Без претензий на шедевр, но слушать приятно.

Powered by Invision Power Board
© Invision Power Services