Printable Version of Topic

Click here to view this topic in its original format

Metal Area - Extreme Music Portal _ Archive _ Impending Triumph - Impending Triumph [ep] (2023)

Posted by: kefka May 5 2023, 05:50:09

https://metalarea.org/images/audiocovers/2023_May/acov_tid381015.jpg

*Artist: Impending Triumph
*Album: Impending Triumph [ep]
*Year: 2023
*Genre: Epic Heavy Metal
*Country: Belgium
*Format: mp3@CBR320kbps
*Size: 58MB

Tracklist:
1.Dawn of Death 01:46
2.Armies of the Conqueror 04:44
3.The Invisible Fortress 06:02
4.Dragon Hunt 04:19
5.Temple of Oblivion 08:00
******************************
Total playing time: 24:51

https://jawbreakerrecords.bandcamp.com/album/impending-triumph

Extended info
Project of Déhà


Technical info

Input File: 4.Dragon Hunt.mp3
Channels : 2
Sample Rate : 44100
Precision : 16-bit
Duration : 00:04:19.13 = 11427457 samples = 19434.5 CDDA sectors
File Size : 10.8M
Bit Rate : 332k
Sample Encoding: MPEG audio (layer I, II or III)
Comments :
Title=Dragon Hunt
Artist=Impending Triumph
Album=Impending Triumph
Tracknumber=4/5
Year=2023
Discnumber=1/1



[ Hidden Text ]

Posted by: spbfucker May 29 2023, 21:52:43

Винтаж. Вокал а-ля Рок-н-Рольф, мелодика от Einherjer, аранжи из 80-х. Много пафоса.
Для поностальгировать украдкой от мамки - в самый раз.

Powered by Invision Power Board
© Invision Power Services