Printable Version of Topic

Click here to view this topic in its original format

Metal Area - Extreme Music Portal _ Archive _ Orbita - Into Nothingness I Walk [demo] (2023)

Posted by: kefka May 29 2023, 02:43:34

https://metalarea.org/images/audiocovers/2023_May/acov_tid382152.jpg

*Artist: Orbita
*Album: Into Nothingness I Walk [demo]
*Year: 2023
*Genre: Stoner/Doom Metal
*Country: Italy
*Format: mp3@CBR320kbps
*Size: 76MB

Tracklist:
1.This Flesh 06:08
2.Relieved 11:05
3.Voices 05:58
4.Ten Minutes 09:37
******************************
Total playing time: 32:48

https://orbita999.bandcamp.com/album/into-nothingness-i-walk-demo-2023

Technical info

Input File: 3.Voices.mp3
Channels : 2
Sample Rate : 44100
Precision : 16-bit
Duration : 00:05:58.68 = 15817964 samples = 26901.3 CDDA sectors
File Size : 14.7M
Bit Rate : 328k
Sample Encoding: MPEG audio (layer I, II or III)
Comments :
Title=Voices
Artist=Orbita
Album=Into Nothingness I Walk
Tracknumber=3/4
Year=2023
Discnumber=1/1



[ Hidden Text ]

Powered by Invision Power Board
© Invision Power Services