Printable Version of Topic

Click here to view this topic in its original format

Metal Area - Extreme Music Portal _ Archive _ Keys To The Astral Gates And Mystic Doors - Keys To The Astral Gates And Mystic Doors [demo] (2023)

Posted by: sacrut Jul 17 2023, 04:25:11

https://metalarea.org/images/audiocovers/2023_Jul/acov_tid384094.jpg

*Artist: Keys To The Astral Gates And Mystic Doors
*Album: Keys To The Astral Gates And Mystic Doors [demo]
*Year: 2023
*Genre: Raw Black Metal
*Country: United States
*Format: mp3@CBR320kbps
*Size: 48MB

Tracklist:
1. Knell 01:27
2. The Lighting of the Treasured Candles 05:31
3. Untitled / Thoroughfare of Disillusionment 06:48
4. Eternal Crushing Heat 06:13
******************************
Total playing time: 19:59

https://emptypitrecordings.bandcamp.com/album/keys-to-the-astral-gates-and-mystic-doors

Extended info
The debut demo from Madison based raw black metal practitioners: Keys To The Astral Gates And Mystic Doors. Raw, bludgeoning, lo-fi incantations scatter the first eponymous recording coming out of the howling midwest.

HAIL DIY. HAIL MADISON BLACK METAL. HAIL EMPTY PIT.
credits
released July 14, 2023

Pit Dweller - Guitar/Drums/Bass
Ludwig the Bloodsucker - Vox/Synth


Technical info

Input File: 03 - Untitled_Thoroughfare of Disillusionment.mp3
Channels : 2
Sample Rate : 44100
Precision : 16-bit
Duration : 00:06:48.37 = 18009161 samples = 30627.8 CDDA sectors
File Size : 16.5M
Bit Rate : 322k
Sample Encoding: MPEG audio (layer I, II or III)
Comments :
Title=Untitled/Thoroughfare of Disillusionment
Artist=Keys To The Astral Gates And Mystic Doors
Album=Keys To The Astral Gates And Mystic Doors
Tracknumber=03/04
Year=2023
Genre=Raw Black Metal



[ Hidden Text ]

Posted by: damage666 Jul 17 2023, 09:49:49

парашный, унылый вкбм. Я думал такого уже давно нет.

Posted by: judaz Jul 19 2023, 19:28:58

Ну не совсем уж парашный, но и не выдающийся.

Posted by: vosmidesijatye Jul 19 2023, 19:37:04

Зато и лого и обложка шедевральны true_black.gif pray.gif

Posted by: Vidyadharov Jul 19 2023, 20:24:16

ЦИТАТА(vosmidesijatye @ Jul 19 2023, 19:37:04) *
Зато и лого и обложка шедевральны true_black.gif pray.gif

В этом году уже было похожее:



Posted by: vosmidesijatye Jul 19 2023, 20:32:45

Тож в копилку 27.gif

Posted by: Vidyadharov Jul 20 2023, 09:39:47

ЦИТАТА(vosmidesijatye @ Jul 19 2023, 20:32:45) *
Тож в копилку 27.gif

К слову, я тоже считаю новаторским этот сигилообразный стиль логотипов.

Powered by Invision Power Board
© Invision Power Services