Printable Version of Topic

Click here to view this topic in its original format

Metal Area - Extreme Music Portal _ Archive _ Dead And Dripping - Blackened Cerebral Rifts (2023)

Posted by: necroscum Aug 10 2023, 14:47:22

https://metalarea.org/images/audiocovers/2023_Aug/acov_tid384940.jpg

*Artist: Dead And Dripping
*Album: Blackened Cerebral Rifts
*Year: 2023
*Genre: Brutal Death Metal
*Country: United States
*Format: mp3@CBR320kbps
*Size: 106MB

Tracklist:
1. Tragic Ascent of Absurdity's Pale Moon 05:03
2. Humanoid Statues Parading Condescending Gestures 03:25
3. Aural Interference with Uncanny Subconscious Frequencies 05:05
4. Infinitely Plummeting into Violet Portals of Delusion 07:50
5. Hopeless Desire for Reprieve 02:31
6. Meticulously Unraveling the Serpentine Consciousness 04:18
7. Kaleidoscopic Visions of Porous Obsidian Eternities 04:11
8. Molecular Degradation upon Warped Onyx Stoves 05:49
9. Hysterical Mirages of Otherworldly Calamity 06:26
******************************
Total playing time: 44:38

https://www.facebook.com/DeDnDrPnG69
https://deadanddrippingus.bandcamp.com/album/blackened-cerebral-rifts
https://www.youtube.com/watch?v=uJPJDdlirEo

Technical info

Input File: 02 - Humanoid Statues Parading Condescending Gestures.mp3
Channels : 2
Sample Rate : 44100
Precision : 16-bit
Duration : 00:03:25.00 = 9040500 samples = 15375 CDDA sectors
File Size : 8.63M
Bit Rate : 337k
Sample Encoding: MPEG audio (layer I, II or III)
Comments :
Title=Humanoid Statues Parading Condescending Gestures
Artist=Dead and Dripping
Album=Blackened Cerebral Rifts
Tracknumber=2
Year=2023-08-11
Genre=Metal
Discnumber=1



[ Hidden Text ]

Posted by: dns123 Aug 11 2023, 10:33:59

Годнота. Ритм-секция качевая и атмосфера мрачно-болезненная. Напомнило Forensic от Mortal Decay

Posted by: xax Aug 12 2023, 06:30:59

Да, не зря год ждали)) прекрасный альбом

Posted by: 6666666 Aug 12 2023, 11:43:22

Много брутала?

Posted by: dns123 Aug 12 2023, 11:57:57

6666666,
34.788%

Posted by: Strid Aug 12 2023, 13:16:53

Весьма достойный экземпляр! Интересные и сложные структуры композиций на дают заскучать на протяжении всего альбома. Одного раза явно недостаточно, чтобы полностью раскусить эту работу, надо пройтись несколько раз.

Posted by: Ash_1980 Aug 12 2023, 20:50:49

Очешуенный брутал! Облога кайф!

Posted by: Strid Aug 13 2023, 10:24:07

ЦИТАТА(Ash_1980 @ Aug 12 2023, 22:50:49) *
Облога кайф!

Я смотрю фиолетово-розовые тона и большая заполняемость изображения разными деталями, прям тренд какой-то, последнее время

Posted by: Morda_Morda Sep 11 2023, 13:45:13

А предыдущие так же хороши, стоит их слушать?

Posted by: xax Sep 11 2023, 13:57:06

QUOTE(Morda_Morda @ Sep 11 2023, 19:45:13) *
А предыдущие так же хороши, стоит их слушать?

первый дебютник даже еще лучше

Posted by: vosmidesijatye Sep 11 2023, 15:55:46

Обложка в меру хороша, да.

Posted by: anotherandomofo Dec 17 2023, 12:40:45

mega is dead.
re-upload please pray.gif

Powered by Invision Power Board
© Invision Power Services