Printable Version of Topic

Click here to view this topic in its original format

Metal Area - Extreme Music Portal _ Archive _ Asagraum - Impure Fire [single] (2023)

Posted by: Kaphiel Aug 31 2023, 16:38:41

https://metalarea.org/images/audiocovers/2023_Aug/acov_tid385670.jpg

*Artist: Asagraum
*Album: Impure Fire [single]
*Year: 2023
*Genre: Black Metal
*Country: Netherlands
*Format: mp3@CBR320kbps
*Size: 12MB

Tracklist:
01. Impure Fire 05:10
******************************
Total playing time: 5:10

https://youtu.be/5UTPVYdDkUo

Extended info
Track from the upcoming album 'Veil of Death, Ruptured'. To be released by Edged Circle Productions (CD/LP/MC/Digital) on October 20th, 2023.


Technical info

Input File: 01 - Impure Fire.mp3
Channels : 2
Sample Rate : 44100
Precision : 16-bit
Duration : 00:05:10.00 = 13671000 samples = 23250 CDDA sectors
File Size : 12.5M
Bit Rate : 324k
Sample Encoding: MPEG audio (layer I, II or III)
Comments :
Title=Impure Fire
Artist=Asagraum
Album=Impure Fire (Single)
Tracknumber=01/01
Year=2023-08-11
Genre=Black Metal



[ Hidden Text ]

Posted by: vovenom Aug 31 2023, 18:12:52

На родину вернулась?

Posted by: Vidyadharov Sep 4 2023, 13:47:53

ЦИТАТА(vovenom @ Aug 31 2023, 18:12:52) *
На родину вернулась?

Из Голландии в Нидерланды. :)

Powered by Invision Power Board
© Invision Power Services